Космос: Пространство и время / Cosmos: A SpaceTime Odyssey [S01] (2014) BDRip 1080p

Reply to topic
 
Author Message

admin ®

Gender: Male

Longevity: 3 years

Posts: 10019

Post 14-Oct-2017 04:09

[Quote]

Информация о фильме
Название: Космос. Пространство и время
Оригинальное название: Cosmos. A Spacetime Odyssey
Год выхода: 2014
Жанр: Документальный,
Режиссер: Брэннон Брага, Энн Драйэн, Билл Поуп
В ролях: Нил Тайсон (играет самого себя - ведущий), Питер Эмшвиллер (George Tilton, озвучка), Бетани Леви (Businesswoman), Мехди Мерали (Cab Driver), Nadia Rochelle Pfarr (Malala Yousefzai), Пол Телфер (Angry Scholar #2)
Документальный сериал рассказывает о последних научных открытиях, которые были сделаны в области астронавтики, астрофизики и других наук. Сериал «Космос: Путешествие во времени» является продолжением научно-популярной серии фильмов «Космос: Персональное путешествие с Карлом Саганом» и отражает события последних трех десятилетий. Астрофизик Нил Деграсс Тайсон с соавторами (среди которых вдова Сагана Энн Драйэн) расскажет об открытых законах мира космоса, о возможности межпланетных путешествий и наблюдении за космическими процессами. Все самые сложные понятия представлены с потрясающей четкостью, в повествовании соединяются научная точность и эмоциональность. Трехмерная компьютерная графика, уникальные съемки и использование спецэффектов делают каждый эпизод захватывающим и необычным.

Страна: США
Продолжительность: ~00:45:00 мин.-серия
Перевод: Профессиональный (одноголосый, закадровый) Арк-ТВ
Файл
Кодек: AVC
Качество: BDRip 1080p.
Видео: h264, 1920x1080 (16:9), 23.976 кадр.сек., ~6.500 кбит.сек.
Звук:
Аудио #1: AC-3, 48.0 KHz, 2 ch, 192 Kbps, CBR (Russian)
Аудио #2: AC-3, 48.0 KHz, 6 ch, 448 Kbps, CBR (English)
Субтитры: Есть, Английские

Mediainfo (7 серия)

Общее
Уникальный идентификатор : 188521249043006265215205464393464451984 (0x8DD3DF32C67FCE078BFD1F3B010C9390)
Полное имя : D:Торрент файлыКосмос. Пространство и время7. Чистая комната.mkv
Формат : Matroska
Версия формата : Version 4 / Version 2
Размер файла : 2,29 Гбайт
Продолжительность : 44 м.
Общий поток : 7443 Кбит/сек
Название фильма : 07. The Clean Room
Дата кодирования : UTC 2015-07-31 20:23:34
Программа кодирования : mkvmerge v7.0.0 ('Where We Going') 64bit built on Jun 9 2014 15:16:27
Библиотека кодирования : libebml v1.3.0 + libmatroska v1.4.1
Видео
Идентификатор : 1
Формат : AVC
Формат/Информация : Advanced Video Codec
Профиль формата : High@L4.1
Параметр CABAC формата : Да
Параметр ReFrames формата : 3 кадра
Идентификатор кодека : V_MPEG4/ISO/AVC
Продолжительность : 44 м.
Битрейт : 6800 Кбит/сек
Ширина : 1920 пикселей
Высота : 1080 пикселей
Соотношение сторон : 16:9
Режим частоты кадров : Постоянный
Частота кадров : 23,976 кадра/сек
Цветовое пространство : YUV
Субдискретизация насыщенности : 4:2:0
Битовая глубина : 8 бит
Тип развёртки : Прогрессивная
Бит/(Пиксели*Кадры) : 0.137
Размер потока : 2,05 Гбайт (89%)
Заголовок : 07. The Clean Room
Библиотека кодирования : x264 core 116 r2019M 9cc407d
Настройки программы : cabac=1 / ref=3 / deblock=1:-1:-1 / analyse=0x3:0x133 / me=tesa / subme=10 / psy=1 / psy_rd=1.00:0.15 / mixed_ref=1 / me_range=32 / chroma_me=1 / trellis=2 / 8x8dct=1 / cqm=0 / deadzone=21,11 / fast_pskip=0 / chroma_qp_offset=-3 / threads=10 / sliced_threads=0 / nr=10 / decimate=1 / interlaced=0 / bluray_compat=0 / constrained_intra=0 / bframes=3 / b_pyramid=1 / b_adapt=2 / b_bias=0 / direct=3 / weightb=1 / open_gop=0 / weightp=2 / keyint=230 / keyint_min=23 / scenecut=40 / intra_refresh=0 / rc=2pass / mbtree=0 / bitrate=6800 / ratetol=1.0 / qcomp=0.60 / qpmin=10 / qpmax=51 / qpstep=4 / cplxblur=20.0 / qblur=0.5 / ip_ratio=1.40 / pb_ratio=1.30 / aq=1:1.00
Язык : English
Default : Да
Forced : Нет
_STATISTICS_WRITING_APP : mkvmerge v7.0.0 ('Where We Going') 64bit built on Jun 9 2014 15:16:27
_STATISTICS_WRITING_DATE_UTC : 2015-07-31 20:23:34
_STATISTICS_TAGS : BPS DURATION NUMBER_OF_FRAMES NUMBER_OF_BYTES
DURATION : 00:44:05.059000000
NUMBER_OF_FRAMES : 63418
NUMBER_OF_BYTES : 2248818899
Аудио #1
Идентификатор : 2
Формат : AC-3
Формат/Информация : Audio Coding 3
Расширение режима : CM (complete main)
Параметр Endianness формата : Big
Идентификатор кодека : A_AC3
Продолжительность : 44 м.
Вид битрейта : Постоянный
Битрейт : 192 Кбит/сек
Каналы : 2 канала
Расположение каналов : Front: L R
Частота : 48,0 КГц
Битовая глубина : 16 бит
Метод сжатия : С потерями
Размер потока : 60,5 Мбайт (3%)
Заголовок : Nat Geo Rus
Язык : Russian
Default : Да
Forced : Нет
_STATISTICS_WRITING_APP : mkvmerge v7.0.0 ('Where We Going') 64bit built on Jun 9 2014 15:16:27
_STATISTICS_WRITING_DATE_UTC : 2015-07-31 20:23:34
_STATISTICS_TAGS : BPS DURATION NUMBER_OF_FRAMES NUMBER_OF_BYTES
DURATION : 00:44:05.216000000
NUMBER_OF_FRAMES : 82663
NUMBER_OF_BYTES : 63485184
Аудио #2
Идентификатор : 3
Формат : AC-3
Формат/Информация : Audio Coding 3
Расширение режима : CM (complete main)
Параметр Endianness формата : Big
Идентификатор кодека : A_AC3
Продолжительность : 44 м.
Вид битрейта : Постоянный
Битрейт : 448 Кбит/сек
Каналы : 6 каналов
Расположение каналов : Front: L C R, Side: L R, LFE
Частота : 48,0 КГц
Битовая глубина : 16 бит
Метод сжатия : С потерями
Размер потока : 141 Мбайт (6%)
Заголовок : English
Язык : English
Default : Нет
Forced : Нет
_STATISTICS_WRITING_APP : mkvmerge v7.0.0 ('Where We Going') 64bit built on Jun 9 2014 15:16:27
_STATISTICS_WRITING_DATE_UTC : 2015-07-31 20:23:34
_STATISTICS_TAGS : BPS DURATION NUMBER_OF_FRAMES NUMBER_OF_BYTES
DURATION : 00:44:05.184000000
NUMBER_OF_FRAMES : 82662
NUMBER_OF_BYTES : 148130304
Текст
Идентификатор : 4
Формат : UTF-8
Идентификатор кодека : S_TEXT/UTF8
Идентификатор кодека/Информация : UTF-8 Plain Text
Заголовок : English
Язык : English
Default : Да
Forced : Нет
_STATISTICS_WRITING_APP : mkvmerge v7.0.0 ('Where We Going') 64bit built on Jun 9 2014 15:16:27
_STATISTICS_WRITING_DATE_UTC : 2015-07-31 20:23:34
_STATISTICS_TAGS : BPS DURATION NUMBER_OF_FRAMES NUMBER_OF_BYTES
DURATION : 00:40:58.915000000
NUMBER_OF_FRAMES : 484
NUMBER_OF_BYTES : 25492

Скриншоты

Список серий

Сезон 1
2014, эпизодов: 13
Эпизод 1
Стоя на Млечном Пути
Standing Up in the Milky Way 9 марта 2014
Эпизод 2
Кое-что из того, на что способны молекулы
Some of the Things That Molecules Do 16 марта 2014
Эпизод 3
Когда знание победило страх
When Knowledge Conquered Fear 23 марта 2014
Эпизод 4
Небо, полное призраков
A Sky Full of Ghosts 30 марта 2014
Эпизод 5
То, что скрывает свет
Hiding in the Light 6 апреля 2014
Эпизод 6
Всё глубже, глубже и глубже
Deeper, Deeper, Deeper Still 13 апреля 2014
Эпизод 7
Чистая комната
The Clean Room 20 апреля 2014
Эпизод 8
Сёстры Солнца
Sisters of the Sun 27 апреля 2014
Эпизод 9
Затерянные миры планеты Земля
The Lost Worlds of Planet Earth 4 мая 2014
Эпизод 10
Электрический мальчик
The Electric Boy 11 мая 2014
Эпизод 11
Бессмертные
The Immortals 18 мая 2014
Эпизод 12
Освобожденный мир
The World Set Free 1 июня 2014
Эпизод 13
Нестрашная темнота
Unafraid of the Dark 8 июня 2014
[Profile] [PM]
Display posts:    
Reply to topic

Current time is: 27-Sep 15:23

All times are UTC + 3



You cannot post new topics in this forum
You cannot reply to topics in this forum
You cannot edit your posts in this forum
You cannot delete your posts in this forum
You cannot vote in polls in this forum
You cannot attach files in this forum
You can download files in this forum