Время псов / Hunter's Prayer (Джонатан Мостоу / Jonathan Mostow) [2017, США, Испания, Германия, Боевик, триллер, BDRip-AVC] Dub + Sub Eng + Original Eng

Reply to topic
DL-List and Torrent activity
Size:  1.9 GB   |    Registered:  2 years 11 months   |    Completed:  0 times

Seeder not seen: Never

 
   
 
 
Author Message

admin ®

Gender: Male

Longevity: 3 years

Posts: 10018

Post 05-Oct-2017 07:17

[Quote]

Время псовHunter's Prayer«Это просто бизнес»

Страна: США, Испания, Германия
Жанр: Боевик, триллер
Год выпуска: 2017
Продолжительность: 01:31:15
Перевод: Профессиональный (дублированный) iTunes
Субтитры: английские
Оригинальная аудиодорожка: английский
Режиссер: Джонатан Мостоу / Jonathan Mostow
В ролях: Сэм Уортингтон, Одейя Раш, Мартин Компстон, Эудалд Фонт, Тина Мэскелл, Эбен Янг, Стефани Дули, Люси Джексон, Клаудия Тружильо, Кейт Добсон
Описание: За всю свою карьеру киллер-одиночка Стивен Лукас не сделал ни одной ошибки. Даже враги называли его «идеальной машиной для убийства». Но однажды он не смог нажать на курок. Теперь он и его бывшая жертва, девушка Элла с большими прекрасными глазами, скитаются по Европе, чтобы отомстить виновникам жестокого убийства её семьи.
Доп. информация:
Релиз группы:
Сохранены оригинальные главы как на Bluray
Качество видео: BDRip-AVC | THE_HUNTERS_PRAYER_REMUX_HDCLUB |
Формат видео: MKV
Видео: 1152x482 (2:40:1), 23,976 fps, 2084 Кbps, 0.156 bit/pixe
Аудио: 48 kHz, AC3 Dolby Digital, 3/2 (L,C,R,l,r) + LFE ch, ~384.00 kbps avg DUB
Аудио 2: 48 kHz, AC3 Dolby Digital, 3/2 (L,C,R,l,r) + LFE ch, ~448.00 kbps avg ENG
Формат субтитров: softsub (SRT)
Доп. информация о субтитрах: отключаемые srt

MediaInfo

General
Unique ID : 201231340402391432479181073365539768209 (0x9763BF159424F8BFBCB7C89A58644791)
Complete name : F:\Мои рипы\Время псов\Hunter's Prayer by_IVAN@190282.mkv
Format : Matroska
Format version : Version 4 / Version 2
File size : 1.90 GiB
Duration : 1h 31mn
Overall bit rate : 2 975 Kbps
Movie name : Hunter's Prayer by_IVAN@190282
Encoded date : UTC 2017-08-03 18:12:31
Writing application : mkvmerge v14.0.0 ('Flow') 64bit
Writing library : libebml v1.3.4 + libmatroska v1.4.5
DURATION : 01:23:54.989000000
NUMBER_OF_FRAMES : 1001
NUMBER_OF_BYTES : 24364
_STATISTICS_WRITING_APP : mkvmerge v14.0.0 ('Flow') 64bit
_STATISTICS_WRITING_DATE_UTC : 2017-08-03 18:12:31
_STATISTICS_TAGS : BPS DURATION NUMBER_OF_FRAMES NUMBER_OF_BYTES
Attachment : Yes
Video
ID : 1
Format : AVC
Format/Info : Advanced Video Codec
Format profile : High@L4.1
Format settings, CABAC : Yes
Format settings, ReFrames : 11 frames
Codec ID : V_MPEG4/ISO/AVC
Duration : 1h 31mn
Bit rate : 2 084 Kbps
Width : 1 152 pixels
Height : 482 pixels
Display aspect ratio : 2.40:1
Frame rate mode : Constant
Frame rate : 23.976 fps
Color space : YUV
Chroma subsampling : 4:2:0
Bit depth : 8 bits
Scan type : Progressive
Bits/(Pixel*Frame) : 0.157
Stream size : 1.33 GiB (70%)
Title : Hunter's Prayer by_IVAN@190282
Writing library : x264 core 152 r2851kMod ba24899
Encoding settings : cabac=1 / ref=11 / deblock=1:-3:-3 / analyse=0x3:0x113 / me=umh / subme=11 / psy=1 / fade_compensate=0.00 / psy_rd=1.00:0.05 / mixed_ref=1 / me_range=48 / chroma_me=1 / trellis=2 / 8x8dct=1 / cqm=0 / deadzone=21,11 / fast_pskip=0 / chroma_qp_offset=-3 / threads=6 / lookahead_threads=6 / sliced_threads=0 / nr=0 / decimate=1 / interlaced=0 / bluray_compat=0 / constrained_intra=0 / bframes=16 / b_pyramid=2 / b_adapt=2 / b_bias=0 / direct=3 / weightb=1 / open_gop=0 / weightp=2 / keyint=240 / keyint_min=23 / scenecut=40 / intra_refresh=0 / rc_lookahead=60 / rc=crf / mbtree=1 / crf=16.3000 / qcomp=0.60 / qpmin=0 / qpmax=69 / qpstep=4 / vbv_maxrate=50000 / vbv_bufsize=62500 / crf_max=0.0 / nal_hrd=none / filler=0 / ip_ratio=1.40 / aq=3:0.70
Language : English
Default : Yes
Forced : No
Color primaries : BT.709
Transfer characteristics : BT.709
Matrix coefficients : BT.709
DURATION : 01:31:15.512000000
NUMBER_OF_FRAMES : 131281
NUMBER_OF_BYTES : 1465331527
_STATISTICS_WRITING_APP : mkvmerge v14.0.0 ('Flow') 64bit
_STATISTICS_WRITING_DATE_UTC : 2017-08-03 18:12:31
_STATISTICS_TAGS : BPS DURATION NUMBER_OF_FRAMES NUMBER_OF_BYTES
Audio #1
ID : 2
Format : AC-3
Format/Info : Audio Coding 3
Mode extension : CM (complete main)
Format settings, Endianness : Big
Codec ID : A_AC3
Duration : 1h 31mn
Bit rate mode : Constant
Bit rate : 384 Kbps
Channel(s) : 6 channels
Channel positions : Front: L C R, Side: L R, LFE
Sampling rate : 48.0 KHz
Bit depth : 16 bits
Compression mode : Lossy
Stream size : 251 MiB (13%)
Title : Dub
Language : Russian
Default : Yes
Forced : No
Audio #2
ID : 3
Format : AC-3
Format/Info : Audio Coding 3
Mode extension : CM (complete main)
Format settings, Endianness : Big
Codec ID : A_AC3
Duration : 1h 31mn
Bit rate mode : Constant
Bit rate : 448 Kbps
Channel(s) : 6 channels
Channel positions : Front: L C R, Side: L R, LFE
Sampling rate : 48.0 KHz
Bit depth : 16 bits
Compression mode : Lossy
Stream size : 292 MiB (15%)
Title : Eng
Language : English
Default : No
Forced : No
Text
ID : 4
Format : UTF-8
Codec ID : S_TEXT/UTF8
Codec ID/Info : UTF-8 Plain Text
Title : Eng
Language : English
Default : No
Forced : No
Menu
00:00:00.000 : en:00:00:00.000
00:05:06.389 : en:00:05:06.389
00:11:49.542 : en:00:11:49.542
00:18:17.220 : en:00:18:17.220
00:24:50.113 : en:00:24:50.113
00:27:47.498 : en:00:27:47.498
00:34:19.680 : en:00:34:19.680
00:39:41.752 : en:00:39:41.752
00:45:37.192 : en:00:45:37.192
00:51:45.559 : en:00:51:45.559
00:57:32.113 : en:00:57:32.113
01:03:03.780 : en:01:03:03.780
01:09:21.406 : en:01:09:21.406
01:14:11.195 : en:01:14:11.195
01:20:17.478 : en:01:20:17.478
01:23:53.028 : en:01:23:53.028

x264 log

VIDEO ENCODING
x264 [info]: using SAR=1/1
x264 [info]: using cpu capabilities: MMX2 SSE2Fast SSSE3 SSE4.2 AVX FMA3 BMI2 AVX2
x264 [info]: profile High, level 4.1
x264 [info]: cabac=1 ref=11 deblock=1:-3:-3 analyse=0x3:0x113 me=umh subme=11 psy=1 fade_compensate=0.00 psy_rd=1.00:0.05 mixed_ref=1 me_range=48 chroma_me=1 trellis=2 8x8dct=1 cqm=0 deadzone=21,11 fast_pskip=0 chroma_qp_offset=-3 threads=6 lookahead_threads=6 sliced_threads=0 nr=0 decimate=1 interlaced=0 bluray_compat=0 constrained_intra=0 bframes=16 b_pyramid=2 b_adapt=2 b_bias=0 direct=3 weightb=1 open_gop=0 weightp=2 keyint=240 keyint_min=23 scenecut=40 intra_refresh=0 rc_lookahead=60 rc=crf mbtree=1 crf=16.3000 qcomp=0.60 qpmin=0 qpmax=69 qpstep=4 vbv_maxrate=50000 vbv_bufsize=62500 crf_max=0.0 nal_hrd=none filler=0 ip_ratio=1.40 aq=3:0.70
x264 [info]: frame I:1014 Avg QP:14.19 size:108865 PSNR Mean Y:51.11 U:53.35 V:53.96 Avg:51.78 Global:51.07
x264 [info]: frame P:28171 Avg QP:16.53 size: 26801 PSNR Mean Y:48.24 U:51.00 V:51.65 Avg:49.02 Global:48.17
x264 [info]: frame B:102096 Avg QP:19.66 size: 5876 PSNR Mean Y:47.63 U:51.00 V:51.72 Avg:48.51 Global:47.25
x264 [info]: consecutive B-frames: 2.5% 3.3% 12.0% 11.7% 15.8% 35.6% 6.5% 1.8% 2.2% 1.7% 1.7% 0.7% 1.1% 1.1% 0.7% 0.5% 1.2%
x264 [info]: mb I I16..4: 14.8% 57.9% 27.3%
x264 [info]: mb P I16..4: 1.1% 7.5% 1.5% P16..4: 31.6% 35.7% 11.4% 0.0% 0.0% skip:11.2%
x264 [info]: mb B I16..4: 0.1% 0.7% 0.2% B16..8: 35.5% 15.9% 1.9% direct: 3.0% skip:42.7% L0:44.6% L1:45.3% BI:10.0%
x264 [info]: 8x8 transform intra:70.2% inter:59.5%
x264 [info]: direct mvs spatial:100.0% temporal:0.0%
x264 [info]: coded y,uvDC,uvAC intra: 75.6% 78.8% 60.3% inter: 15.4% 13.5% 4.2%
x264 [info]: i16 v,h,dc,p: 25% 13% 9% 52%
x264 [info]: i8 v,h,dc,ddl,ddr,vr,hd,vl,hu: 14% 8% 9% 9% 12% 12% 12% 11% 12%
x264 [info]: i4 v,h,dc,ddl,ddr,vr,hd,vl,hu: 29% 8% 8% 7% 11% 10% 9% 8% 9%
x264 [info]: i8c dc,h,v,p: 36% 28% 20% 16%
x264 [info]: Weighted P-Frames: Y:5.3% UV:3.3%
x264 [info]: ref P L0: 49.6% 9.0% 16.5% 6.4% 5.1% 3.7% 3.1% 2.0% 1.6% 1.4% 1.5% 0.1% 0.0%
x264 [info]: ref B L0: 75.0% 10.9% 5.5% 2.4% 1.7% 1.4% 1.1% 0.7% 1.0% 0.2%
x264 [info]: ref B L1: 94.1% 5.9%
x264 [info]: SSIM Mean Y:0.9859942 (18.537db)
x264 [info]: PSNR Mean Y:47.786 U:51.019 V:51.723 Avg:48.643 Global:47.449 kb/s:2140.92
x264 [total]: encoded 131281 frames, 2.08 fps, 2140.92 kb/s, duration 17:31:16.33

Скриншот c названием фильма

Скриншоты

Убедительная просьба пожалуйста кто скачал не бросайте раздачу!!!
 GOLD TORRENT! DOWNLOAD TRAFFIC DOES NOT CONSIDER! 
Torrent: Registered [ 2017-10-05 07:17 ]   · FDAD6AA5A9E7CA0F2A6B55215EE8002FA3B0544B

Download .torrent

Download

19 KB

Status: checked
Completed: 0 times
Size: 1.9 GB
Поделиться:
terms.php
[Profile] [PM]
Display posts:    
Reply to topic

Current time is: 29-Sep 11:15

All times are UTC + 3



You cannot post new topics in this forum
You cannot reply to topics in this forum
You cannot edit your posts in this forum
You cannot delete your posts in this forum
You cannot vote in polls in this forum
You cannot attach files in this forum
You can download files in this forum