Малыш на драйве / Baby Driver (2017) BDRip-AVC от ExKinoRay | Лицензия

Reply to topic
DL-List and Torrent activity
Size:  2.65 GB   |    Registered:  2 years 10 months   |    Completed:  0 times
Seeders:  1  [  0 KB/s  ]   Leechers:  3  [  0 KB/s  ]   Show peers in full details
 
   
 
 
Author Message

admin ®

Gender: Male

Longevity: 2 years 11 months

Posts: 10017

Post 07-Nov-2017 11:13

[Quote]

Информация о фильме
Название: Малыш на драйве
Оригинальное название: Baby Driver
Год выпуска: 2017
Жанр: Боевик, триллер, криминал, музыка
Режиссер: Эдгар Райт
В ролях: Энсел Элгорт, Джон Бернтал, Джон Хэмм, Эйса Гонсалес, Лили Джеймс, Морган Браун, Кевин Спейси, С.Дж. Джонс
Описание: Юный водитель по кличке «Малыш» (Энсел Элгорт) работает на профессиональных грабителей банков. В один момент он внезапно оказывается втянутым в одно из ограблений, которое, к его глубокому сожалению, выходит из-под контроля, и все начинает идти совсем не по плану. Американский боевик британского режиссера Эдгара Райта, известного по своей работе над фильмом «Зомби по имени Шон», сочетает в себе не только жанр боевика, но и элементы комедии, и даже триллера. Классический сюжет о неудачном ограблении вероятнее всего будет интересен поклонникам фильмов об охотниках за легкой наживой.


Страна: Великобритания, США
Студия: Big Talk Productions, Double Negative
Продолжительность: 01:52:40
Перевод: Дублированный | Лицензия
Субтитры: Русские (форсированные, полные), украинские (полные, форсированные), английские (полные)
Файл
Формат: MKV
Качество: BDRip-AVC
Видео: MPEG-4 AVC, 1024x428 (2.40:1), 2313 Kbit/s, 23.976 fps, 0,220 bpp
Звук:
Аудио 1: 48 kHz, AC3, 5.1 ch, 448 Kbps | RUS
Аудио 2: 48 kHz, AAC, 2.0 ch, 160 Kbps | UKR
Аудио 2: 48 kHz, AC3, 5.1 ch, 448 Kbps | ENG
Навигация по главам: есть

MI

General
Unique ID : 176058950337520770653966562407507751501 (0x8473B86EF7E18273AF7892370012F24D)
Complete name : D:Baby.Driver.2017.D.BDRip.AVC.ExKinoRay.mkv
Format : Matroska
Format version : Version 2
File size : 2.65 GiB
Duration : 1 h 52 min
Overall bit rate : 3 372 kb/s
Movie name : Baby Driver 2017 from ExKinoRay
Encoded date : UTC 2017-11-06 16:28:38
Writing application : mkvmerge v5.6.0 ('Kenya Kane') built on May 27 2012 16:44:04
Writing library : libebml v1.2.3 + libmatroska v1.3.0
Video
ID : 1
Format : AVC
Format/Info : Advanced Video Codec
Format profile : High@L4.1
Format settings, CABAC : Yes
Format settings, ReFrames : 12 frames
Codec ID : V_MPEG4/ISO/AVC
Duration : 1 h 52 min
Bit rate : 2 313 kb/s
Width : 1 024 pixels
Height : 428 pixels
Display aspect ratio : 2.40:1
Frame rate mode : Constant
Frame rate : 23.976 (23976/1000) FPS
Color space : YUV
Chroma subsampling : 4:2:0
Bit depth : 8 bits
Scan type : Progressive
Bits/(Pixel*Frame) : 0.220
Stream size : 1.77 GiB (67%)
Title : Enigma
Writing library : x264 core 152 r2851 ba24899
Encoding settings : cabac=1 / ref=12 / deblock=1:-2:-2 / analyse=0x3:0x113 / me=umh / subme=10 / psy=1 / psy_rd=1.05:0.10 / mixed_ref=1 / me_range=32 / chroma_me=1 / trellis=2 / 8x8dct=1 / cqm=0 / deadzone=21,11 / fast_pskip=1 / chroma_qp_offset=-3 / threads=12 / lookahead_threads=3 / sliced_threads=0 / nr=0 / decimate=0 / interlaced=0 / bluray_compat=0 / constrained_intra=0 / bframes=11 / b_pyramid=2 / b_adapt=2 / b_bias=0 / direct=3 / weightb=1 / open_gop=0 / weightp=2 / keyint=240 / keyint_min=23 / scenecut=40 / intra_refresh=0 / rc_lookahead=40 / rc=2pass / mbtree=0 / bitrate=2313 / ratetol=1.0 / qcomp=0.60 / qpmin=0 / qpmax=51 / qpstep=4 / cplxblur=20.0 / qblur=0.5 / vbv_maxrate=50000 / vbv_bufsize=62500 / nal_hrd=none / filler=0 / ip_ratio=1.40 / pb_ratio=1.30 / aq=1:1.00
Language : English
Default : Yes
Forced : No
Audio #1
ID : 2
Format : AC-3
Format/Info : Audio Coding 3
Mode extension : CM (complete main)
Format settings, Endianness : Big
Codec ID : A_AC3
Duration : 1 h 52 min
Bit rate mode : Constant
Bit rate : 448 kb/s
Channel(s) : 6 channels
Channel positions : Front: L C R, Side: L R, LFE
Sampling rate : 48.0 kHz
Frame rate : 31.250 FPS (1536 spf)
Compression mode : Lossy
Stream size : 361 MiB (13%)
Title : Dub (Лицензия)
Language : Russian
Default : Yes
Forced : No
Audio #2
ID : 3
Format : AC-3
Format/Info : Audio Coding 3
Mode extension : CM (complete main)
Format settings, Endianness : Big
Codec ID : A_AC3
Duration : 1 h 52 min
Bit rate mode : Constant
Bit rate : 160 kb/s
Channel(s) : 2 channels
Channel positions : Front: L R
Sampling rate : 48.0 kHz
Frame rate : 31.250 FPS (1536 spf)
Compression mode : Lossy
Stream size : 129 MiB (5%)
Title : Dub (iTunes)
Language : Ukrainian
Default : No
Forced : No
Audio #3
ID : 4
Format : AC-3
Format/Info : Audio Coding 3
Mode extension : CM (complete main)
Format settings, Endianness : Big
Codec ID : A_AC3
Duration : 1 h 52 min
Bit rate mode : Constant
Bit rate : 448 kb/s
Channel(s) : 6 channels
Channel positions : Front: L C R, Side: L R, LFE
Sampling rate : 48.0 kHz
Frame rate : 31.250 FPS (1536 spf)
Compression mode : Lossy
Stream size : 361 MiB (13%)
Language : English
Default : No
Forced : No
Text #1
ID : 5
Format : UTF-8
Codec ID : S_TEXT/UTF8
Codec ID/Info : UTF-8 Plain Text
Title : Forced
Language : Russian
Default : Yes
Forced : Yes
Text #2
ID : 6
Format : UTF-8
Codec ID : S_TEXT/UTF8
Codec ID/Info : UTF-8 Plain Text
Title : Forced
Language : Ukrainian
Default : No
Forced : No
Text #3
ID : 7
Format : UTF-8
Codec ID : S_TEXT/UTF8
Codec ID/Info : UTF-8 Plain Text
Title : Full
Language : Russian
Default : No
Forced : No
Text #4
ID : 8
Format : UTF-8
Codec ID : S_TEXT/UTF8
Codec ID/Info : UTF-8 Plain Text
Title : Full
Language : Ukrainian
Default : No
Forced : No
Text #5
ID : 9
Format : UTF-8
Codec ID : S_TEXT/UTF8
Codec ID/Info : UTF-8 Plain Text
Title : SDH
Language : English
Default : No
Forced : No
Menu
00:00:00.000 : en:Chapter 01
00:09:11.050 : en:Chapter 02
00:13:30.643 : en:Chapter 03
00:20:58.173 : en:Chapter 04
00:25:17.599 : en:Chapter 05
00:33:07.527 : en:Chapter 06
00:43:43.245 : en:Chapter 07
00:48:15.392 : en:Chapter 08
00:53:39.549 : en:Chapter 09
00:58:51.528 : en:Chapter 10
01:05:23.544 : en:Chapter 11
01:11:33.747 : en:Chapter 12
01:19:17.377 : en:Chapter 13
01:30:30.675 : en:Chapter 14
01:38:04.169 : en:Chapter 15
01:43:30.412 : en:Chapter 16

Скриншоты

[url=http://lostpix.com/?v=2017-10-05_1al2fybsawi68c8eds1s709qx.png][img]http://lostpix.com/thumbs/2017-10/05/1al2fybsawi68c8eds1s709qx.png[/im
 GOLD TORRENT! DOWNLOAD TRAFFIC DOES NOT CONSIDER! 
Torrent: Registered [ 2017-11-07 11:13 ]   · 025B5813A14EEDE084E590C30B03BB0B30B05F34

Download .torrent

Download

14 KB

Status: checked
Completed: 0 times
Size: 2.65 GB
Поделиться:
terms.php
[Profile] [PM]
Display posts:    
Reply to topic

Current time is: 24-Sep 02:11

All times are UTC + 3



You cannot post new topics in this forum
You cannot reply to topics in this forum
You cannot edit your posts in this forum
You cannot delete your posts in this forum
You cannot vote in polls in this forum
You cannot attach files in this forum
You can download files in this forum