24 часа на жизнь / 24 Hours to Live (2017) WEB-DLRip 720p | L2

Reply to topic
DL-List and Torrent activity
Size:  2.57 GB   |    Registered:  2 years 10 months   |    Completed:  0 times
Seeders:  93  [  0 KB/s  ]   Leechers:  5  [  0 KB/s  ]   Show peers in full details
 
   
 
 
Author Message

admin ®

Gender: Male

Longevity: 3 years

Posts: 10019

Post 04-Nov-2017 23:42

[Quote]

Информация о фильме
Название: 24 часа на жизнь
Оригинальное название: 24 Hours to Live
Год выхода: 2017
Жанр: Боевик, триллер, фэнтези
Режиссер: Брайан Смрз
В ролях: Рутгер Хауэр, Итан Хоук, Пол Андерсон, Лиам Каннингэм, Натали Болтт, Таня ван Граан, Хаким Кае-Казим, Сюй Цин, Эйдан Уайток, Эндрю Моргадо и другие.
О фильме:
Во время очередного задания погибает киллер, на совести которого много невинных жертв. Но таинственным образом он возвращается из потустороннего мира к жизни. И теперь у него есть только 24 часа, чтобы объединившись с убийцей, от руки которого он принял смерть, искупить вину и спасти свою душу.

Страна: ЮАР, Гонконг
Продолжительность: 01:34:07
Перевод: Любительский (многоголосый закадровый) | RecentFilms
Файл
Кодек: MPEG-4 AVC/H.264
Качество: WEB-DLRip 720p
Видео: 1280x530, 23,976 fps, ~3790 kbps, 0.233 bit/pixel
Звук:
Аудио rus:AAC, 48 kHz, 2 ch, 128 Kbps
Субтитры: отсутствуют
Реклама:присутствует
Семпл

MediaInfo:

General
Unique ID : 204365267967492496921317948402177443055 (0x99BF51A48D9A16B38E87802C317484EF)
Complete name : F:Films24.Hours.to.Live.2017.720p.RecentFilms24.Hours.to.Live.2017.720p.WEB-DLRip.RecentFilms.mkv
Format : Matroska
Format version : Version 4 / Version 2
File size : 2.57 GiB
Duration : 1h 34mn
Overall bit rate : 3 916 Kbps
Encoded date : UTC 2017-11-04 13:00:20
Writing application : mkvmerge v17.0.0 ('Be Ur Friend') 64-bit
Writing library : libebml v1.3.5 + libmatroska v1.4.8
Video
ID : 1
Format : AVC
Format/Info : Advanced Video Codec
Format profile : High@L3
Format settings, CABAC : No
Format settings, ReFrames : 1 frame
Codec ID : V_MPEG4/ISO/AVC
Duration : 1h 34mn
Bit rate : 3 790 Kbps
Width : 1 280 pixels
Height : 530 pixels
Display aspect ratio : 2.40:1
Frame rate mode : Constant
Frame rate : 23.976 (24000/1001) fps
Original frame rate : 23.976 (23976/1000) fps
Color space : YUV
Chroma subsampling : 4:2:0
Bit depth : 8 bits
Scan type : Progressive
Bits/(Pixel*Frame) : 0.233
Stream size : 2.49 GiB (97%)
Writing library : x264 core 148 r2665 a01e339
Encoding settings : cabac=0 / ref=1 / deblock=1:0:0 / analyse=0x3:0x113 / me=hex / subme=7 / psy=1 / psy_rd=1.00:0.00 / mixed_ref=0 / me_range=16 / chroma_me=1 / trellis=1 / 8x8dct=1 / cqm=0 / deadzone=21,11 / fast_pskip=1 / chroma_qp_offset=-2 / threads=12 / lookahead_threads=2 / sliced_threads=0 / nr=0 / decimate=1 / interlaced=0 / bluray_compat=0 / constrained_intra=0 / bframes=0 / weightp=2 / keyint=250 / keyint_min=23 / scenecut=40 / intra_refresh=0 / rc_lookahead=40 / rc=abr / mbtree=1 / bitrate=3790 / ratetol=1.0 / qcomp=0.60 / qpmin=0 / qpmax=69 / qpstep=4 / ip_ratio=1.40 / aq=1:1.00
Default : Yes
Forced : No
Audio
ID : 2
Format : AAC
Format/Info : Advanced Audio Codec
Format profile : LC
Codec ID : A_AAC
Duration : 1h 34mn
Bit rate : 128 Kbps
Channel(s) : 2 channels
Channel positions : Front: L R
Sampling rate : 48.0 KHz
Frame rate : 46.875 fps (1024 spf)
Compression mode : Lossy
Stream size : 86.2 MiB (3%)
Default : Yes
Forced : No

Скриншоты

 GOLD TORRENT! DOWNLOAD TRAFFIC DOES NOT CONSIDER! 
Torrent: Registered [ 2017-11-04 23:42 ]   · 57687C52FC86AD7CC8D2A7196171C209C3C3220A

Download .torrent

Download

14 KB

Status: T temporary
Completed: 0 times
Size: 2.57 GB
Поделиться:
terms.php
[Profile] [PM]
Display posts:    
Reply to topic

Current time is: 27-Sep 10:46

All times are UTC + 3



You cannot post new topics in this forum
You cannot reply to topics in this forum
You cannot edit your posts in this forum
You cannot delete your posts in this forum
You cannot vote in polls in this forum
You cannot attach files in this forum
You can download files in this forum