Хорошее время / Good Time (2017) BDRip 1080p от ExKinoRay | iTunes

Reply to topic
DL-List and Torrent activity
Size:  7.89 GB   |    Registered:  3 years   |    Completed:  0 times
Seeders:  97  [  0 KB/s  ]   Leechers:  3  [  0 KB/s  ]   Show peers in full details
 
   
 
 
Author Message

admin ®

Gender: Male

Longevity: 3 years 2 months

Posts: 10110

Post 04-Nov-2017 21:25

[Quote]

Информация о фильме
Название: Хорошее время
Оригинальное название: Good Time
Год выхода: 2017
Жанр: Триллер, драма, криминал
Режиссер: Бен Сэфди, Джошуа Сэфди
В ролях: Роберт Паттинсон, Бен Сэфди, Taliah Webster, Дженнифер Джейсон Ли, Баркхад Абди, Рон Браунштейн
О фильме:
Отчаявшись найти работу и достать деньги на оплату счетов, Конни планирует ограбление банка. На налет он берёт своего родного брата Ника, страдающего умственными отклонениями. Ограбление проходит успешно, но у братьев в руках взрывается пакет с краской, и Ник попадает в руки полиции. Чувствуя вину за брата, а также понимая, как тяжело Ник будет переносить каждый день без помощи близкого человека, Конни решает, во что бы то ни стало, вытащить брата из рук полиции. В течение одной ночи, полной адреналина, Конни предпринимает отчаянные попытки пробраться к Нику и освободить его.

Страна: США
Студия: Elara Pictures, Rhea Films (II)
Продолжительность: 01:41:04
Перевод: Профессиональный многоголосый | iTunes
Файл
Качество: BDRip 1080p
Видео: MPEG-4 AVC, 1920x802, 10.1 Mbit/s, 24.000 fps
Звук:
Аудио #01: 48 kHz, AC3, 5.1, 384 Kbps | iTunes | RUS |
Аудио #02: 48 kHz, AC3, 5.1, 640 Kbps | Оригинал | ENG |

Скриншоты

MI

General
Unique ID : 195316383332820426125794683817022375507 (0x92F0912F5DE45D77B260DCD82472C653)
Complete name : G:VideoSSDGood.Time.2017.BDRip.1080p.ExKinoRay.mkv
Format : Matroska
Format version : Version 4 / Version 2
File size : 7.89 GiB
Duration : 1 h 41 min
Overall bit rate : 11.2 Mb/s
Movie name : Release by ExKinoRay
Encoded date : UTC 2017-11-04 03:20:02
Writing application : mkvmerge v17.0.0 ('Be Ur Friend') 64-bit
Writing library : libebml v1.3.5 + libmatroska v1.4.8
Cover : Yes
Attachments : cover.jpg
Video
ID : 1
Format : AVC
Format/Info : Advanced Video Codec
Format profile : High@L4.1
Format settings : CABAC / 5 Ref Frames
Format settings, CABAC : Yes
Format settings, RefFrames : 5 frames
Codec ID : V_MPEG4/ISO/AVC
Duration : 1 h 41 min
Bit rate : 10.1 Mb/s
Width : 1 920 pixels
Height : 802 pixels
Display aspect ratio : 2.40:1
Frame rate mode : Constant
Frame rate : 24.000 FPS
Color space : YUV
Chroma subsampling : 4:2:0
Bit depth : 8 bits
Scan type : Progressive
Bits/(Pixel*Frame) : 0.275
Stream size : 7.17 GiB (91%)
Writing library : x264 core 148 r2705 3f5ed56
Encoding settings : cabac=1 / ref=5 / deblock=1:-3:-3 / analyse=0x3:0x133 / me=umh / subme=11 / psy=1 / psy_rd=1.05:0.05 / mixed_ref=1 / me_range=48 / chroma_me=1 / trellis=2 / 8x8dct=1 / cqm=0 / deadzone=21,11 / fast_pskip=0 / chroma_qp_offset=-3 / threads=24 / lookahead_threads=4 / sliced_threads=0 / nr=0 / decimate=0 / interlaced=0 / bluray_compat=0 / constrained_intra=0 / bframes=10 / b_pyramid=2 / b_adapt=2 / b_bias=0 / direct=3 / weightb=1 / open_gop=0 / weightp=2 / keyint=240 / keyint_min=24 / scenecut=40 / intra_refresh=0 / rc_lookahead=50 / rc=2pass / mbtree=0 / bitrate=10150 / ratetol=1.0 / qcomp=0.60 / qpmin=0 / qpmax=69 / qpstep=4 / cplxblur=20.0 / qblur=0.5 / vbv_maxrate=50000 / vbv_bufsize=62500 / nal_hrd=none / filler=0 / ip_ratio=1.40 / pb_ratio=1.30 / aq=3:0.80
Language : English
Default : Yes
Forced : No
Audio #1
ID : 2
Format : AC-3
Format/Info : Audio Coding 3
Format settings, Endianness : Big
Codec ID : A_AC3
Duration : 1 h 41 min
Bit rate mode : Constant
Bit rate : 384 kb/s
Channel(s) : 6 channels
Channel positions : Front: L C R, Side: L R, LFE
Sampling rate : 48.0 kHz
Frame rate : 31.250 FPS (1536 SPF)
Bit depth : 16 bits
Compression mode : Lossy
Stream size : 278 MiB (3%)
Title : Dub
Language : Russian
Service kind : Complete Main
Default : Yes
Forced : No
Audio #2
ID : 3
Format : AC-3
Format/Info : Audio Coding 3
Format settings, Endianness : Big
Codec ID : A_AC3
Duration : 1 h 41 min
Bit rate mode : Constant
Bit rate : 640 kb/s
Channel(s) : 6 channels
Channel positions : Front: L C R, Side: L R, LFE
Sampling rate : 48.0 kHz
Frame rate : 31.250 FPS (1536 SPF)
Bit depth : 16 bits
Compression mode : Lossy
Stream size : 463 MiB (6%)
Title : Original
Language : English
Service kind : Complete Main
Default : No
Forced : No
Menu
00:00:00.000 : en:Chapter 1
00:12:33.291 : en:Chapter 2
00:25:52.500 : en:Chapter 3
00:36:44.250 : en:Chapter 4
00:49:38.000 : en:Chapter 5
01:03:02.166 : en:Chapter 6
01:15:24.458 : en:Chapter 7
01:27:26.958 : en:Chapter 8
 GOLD TORRENT! DOWNLOAD TRAFFIC DOES NOT CONSIDER! 
Torrent: Registered [ 2017-11-04 21:25 ]   · 23FD305E781B937286F08CB9774B6F9BD3C08616

Download .torrent

Download

40 KB

Status: checked
Completed: 0 times
Size: 7.89 GB
Поделиться:
terms.php
[Profile] [PM]
Display posts:    
Reply to topic

Current time is: 28-Nov 17:04

All times are UTC + 3



You cannot post new topics in this forum
You cannot reply to topics in this forum
You cannot edit your posts in this forum
You cannot delete your posts in this forum
You cannot vote in polls in this forum
You cannot attach files in this forum
You can download files in this forum