Дело о пеликанах / The Pelican Brief (1993) BDRip 720p | D

Reply to topic
DL-List and Torrent activity
Size:  4.37 GB   |    Registered:  3 years 1 month   |    Completed:  0 times
Seeders:  10  [  0 KB/s  ]   Show peers in full details
 
   
 
 
Author Message

admin ®

Gender: Male

Longevity: 3 years 2 months

Posts: 10116

Post 02-Nov-2017 20:39

[Quote]

Информация о фильме
Название: Дело о пеликанах
Оригинальное название: The Pelican Brief
Год выхода: 1993
Жанр: Триллер, детектив, драма, экранизация
Режиссер: Алан Дж. Пакула
В ролях: Джулия Робертс, Дензел Вашингтон, Сэм Шепард, Джон Хёрд, Тони Голдуин, Джеймс Сиккинг, Уильям Этертон, Роберт Калп, Стэнли Туччи, Хьюм Кронин, Джон Литгоу, Энтони Хилд, Николас Вудесон, Стэнли Андерсон, Джон Финн, Синтия Никсон, Джейк Уэбер, Кейси Биггз, Кристофер Мюррэй, Сонни Джим Гейнс, Кевин Гир, Джо Крест, Ричард Бауэр, Мишель О`Нейлл, Питер Карлин, Ральф Косхэм, Карл Палмер, Терренс Куррье, Эдвин Ньюман, Хелен Кэри, Ховард Шэлвиц, Кайл Прю, Джуэлл Робинсон, Ким Питер Ковач, Норман Аронович, Джин Бабб, Кэрол Саттон, Скотт Джеффресон, Дэнни Камин, Марк МакЛафлин, Роберт Павлочич, Маджи Хикки, Ким Кеттл, Элли К. Ванг
О фильме:
Экранизация одноименного бестселлера Джона Гришема ("Фирма", "Клиент"). Убиты два члена Верховного суда Соединенных Штатов. Студентка юридического факультета Дарби Шоу пишет работу, в которой называет возможные причины убийства и предполагаемых организаторов. Далекая от политики девушка неожиданно попадает "в десятку", а собранные ею материалы становятся желанной добычей для очень многих сильных мира сего. Вмешательство ФБР не останавливает убийц, готовых на крайности для обеспечения своей безопасности. За Дарби начинается настоящая охота: ее знакомые взрываются в автомобилях, в ее квартире все перевернуто вверх дном, а компьютер похищен. Любой, кого девушка просит о помощи, погибает...

Страна: США
Студия: Warner Bros. Pictures Co.
Продолжительность: 02:21:09
Перевод: Дублированный
Файл
Качество: BDRip 720p
Видео: 1280x532 (2,40:1), 23.976 fps, MPEG-4 AVC, ~3408 Кбит/с
Аудио1: Dolby Digital 384 Кбит/сек, 5.1, 48,0 КГц, 16-bit (RUS)
Аудио2: Dolby Digital 640 Кбит/сек, 5.1, 48,0 КГц, 16-bit (ENG)
Субтитры: Русские, английские

M/I

Общее
Уникальный идентификатор : 249999713091877641328557219577505236368 (0xBC14317F982C8506AAF6129B0ED7C590)
Полное имя : G:TorrentsSharePelican Brief.1993.BD.Rip.720p.h264.Rus.Eng.mkv
Формат : Matroska
Размер файла : 4,37 Гбайт
Продолжительность : 2 ч. 21 м.
Общий поток : 4435 Кбит/сек
Дата кодирования : UTC 2009-02-13 22:10:15
Программа кодирования : mkvmerge v2.4.2 ('Oh My God') built on Jan 18 2009 17:30:28
Библиотека кодирования : libebml v0.7.7 + libmatroska v0.8.1
Видео
Идентификатор : 1
Формат : AVC
Формат/Информация : Advanced Video Codec
Профиль формата : High@L4.1
Параметр CABAC формата : Да
Параметр ReFrames формата : 12 кадры
Идентификатор кодека : V_MPEG4/ISO/AVC
Продолжительность : 2 ч. 21 м.
Битрейт : 3408 Кбит/сек
Ширина : 1280 пикс.
Высота : 532 пикс.
Соотношение сторон : 2,40:1
Частота кадров : 23,976 кадр/сек
Цветовое пространство : YUV
Подвыборка цветности : 4:2:0
Битовая глубина : 8 бит
Тип развёртки : Прогрессивная
Бит/(Пиксели*Кадры) : 0.209
Размер потока : 3,28 Гбайт (75%)
Библиотека кодирования : x264 core 66 r1112M f43e22a
Настройки программы : cabac=1 / ref=12 / deblock=1:-3:-3 / analyse=0x3:0x113 / me=umh / subme=9 / psy_rd=1,0:0,0 / mixed_ref=1 / me_range=32 / chroma_me=1 / trellis=0 / 8x8dct=1 / cqm=2 / deadzone=6,4 / chroma_qp_offset=-2 / threads=6 / nr=0 / decimate=0 / mbaff=0 / bframes=3 / b_pyramid=1 / b_adapt=2 / b_bias=0 / direct=3 / wpredb=1 / keyint=240 / keyint_min=24 / scenecut=40(pre) / rc=2pass / bitrate=3408 / ratetol=1,0 / qcomp=0,60 / qpmin=10 / qpmax=51 / qpstep=4 / cplxblur=20,0 / qblur=0,5 / ip_ratio=1,40 / pb_ratio=1,30 / aq=1:1,00
Язык : English
Аудио #1
Идентификатор : 2
Формат : AC-3
Формат/Информация : Audio Coding 3
Расширение режима : CM (complete main)
Идентификатор кодека : A_AC3
Продолжительность : 2 ч. 21 м.
Вид битрейта : Постоянный
Битрейт : 384 Кбит/сек
Канал(ы) : 6 канала(ов)
Расположение каналов : Front: L C R, Side: L R, LFE
Частота : 48,0 КГц
Битовая глубина : 16 бит
Метод сжатия : С потерями
Размер потока : 388 Мбайт (9%)
Заголовок : AC3 5.1 384 kbps
Язык : Russian
Аудио #2
Идентификатор : 3
Формат : AC-3
Формат/Информация : Audio Coding 3
Расширение режима : CM (complete main)
Идентификатор кодека : A_AC3
Продолжительность : 2 ч. 21 м.
Вид битрейта : Постоянный
Битрейт : 640 Кбит/сек
Канал(ы) : 6 канала(ов)
Расположение каналов : Front: L C R, Side: L R, LFE
Частота : 48,0 КГц
Битовая глубина : 16 бит
Метод сжатия : С потерями
Размер потока : 646 Мбайт (14%)
Заголовок : AC3 5.1 640 kbps
Язык : English
Текст #1
Идентификатор : 4
Формат : UTF-8
Идентификатор кодека : S_TEXT/UTF8
Идентификатор кодека/Информация : UTF-8 Plain Text
Язык : Russian
Текст #2
Идентификатор : 5
Формат : UTF-8
Идентификатор кодека : S_TEXT/UTF8
Идентификатор кодека/Информация : UTF-8 Plain Text
Язык : English

Скриншоты

 GOLD TORRENT! DOWNLOAD TRAFFIC DOES NOT CONSIDER! 
Torrent: Registered [ 2017-11-02 20:39 ]   · C70F33764879D418AA77E526727633789654D8A8

Download .torrent

Download

45 KB

Status: checked
Completed: 0 times
Size: 4.37 GB
Поделиться:
terms.php
[Profile] [PM]
Display posts:    
Reply to topic

Current time is: 03-Dec 06:53

All times are UTC + 3



You cannot post new topics in this forum
You cannot reply to topics in this forum
You cannot edit your posts in this forum
You cannot delete your posts in this forum
You cannot vote in polls in this forum
You cannot attach files in this forum
You can download files in this forum