Кто я / Who Am I - Kein System ist sicher (Баран бо Одар / Baran bo Odar) [2014, Германия, Триллер, BDRip-AVC] Dub + Sub Rus + Original Ger

Reply to topic
DL-List and Torrent activity
Size:  2.56 GB   |    Registered:  2 years 11 months   |    Completed:  0 times

Seeder not seen: Never

 
   
 
 
Author Message

admin ®

Gender: Male

Longevity: 3 years

Posts: 10019

Post 04-Oct-2017 03:47

[Quote]

Кто яWho Am I - Kein System ist sicher«Каждый видит то, что хочет видеть»

Страна: Германия
Жанр: Триллер
Год выпуска: 2014
Продолжительность: 01:41:47
Перевод: Профессиональный (дублированный) Bluray
Субтитры: русские
Оригинальная аудиодорожка: немецкий
Режиссер: Баран бо Одар / Baran bo Odar
В ролях: Том Шиллинг, Элиас ЭмБарек, Вотан Вильке Мёринг, Антуан Моно мл., Ханна Херцшпрунг, Штефан Кампвирт, Трине Дюрхольм, Леопольд Хорнунг, Катарина Матц, Леонхард Каров
Описание: Бенджамин - молодой компьютерный гений. С детства он мечтает стать супергероем из комиксов и покорить мир. Но в реальном мире он - Никто. Его жизнь неожиданно меняется, когда он встречает свою полную противоположность - харизматичного парня Макса.
Не желая жить в жестких рамках системы, они совершают череду дерзких кибер-преступлений. Восстав против равнодушного общества, они становятся кумирами для целого поколения.
Теперь Бенджамин не просто супергерой, он - самый разыскиваемый хакер в мире. Но что его ждет после погружения в альтернативную реальность? Кто же он на самом деле?...
Доп. информация:
Релиз группы:
Сохранены оригинальные главы как на Bluray
Качество видео: BDRip-AVC | Кто я / Who Am I - Kein System ist sicher (2014) Blu-ray Disc [GER Transfer] -BLUEBIRD|
Формат видео: MKV
Видео: 1146x480 (2:40:1), 25,00 fps, 2639 Кbps, 0.192 bit/pixe
Аудио: 48 kHz, AC3 Dolby Digital, 3/2 (L,C,R,l,r) + LFE ch, ~448.00 kbps avg DUB
Аудио 2: 48 kHz, AC3 Dolby Digital, 3/2 (L,C,R,l,r) + LFE ch, ~448.00 kbps avg GER
Формат субтитров: softsub (SRT)
Доп. информация о субтитрах: отключаемые

MediaInfo

General
Unique ID : 205714594197721836152615280549632094861 (0x9AC3308FEF910FA7939A0A9A44E7328D)
Complete name : E:\Мои рипы\Кто я\Who Am I - Kein System ist sicher by_IVAN@190282.mkv
Format : Matroska
Format version : Version 4 / Version 2
File size : 2.56 GiB
Duration : 1h 41mn
Overall bit rate : 3 607 Kbps
Encoded date : UTC 2016-02-28 12:42:41
Writing application : mkvmerge v8.8.0 ('Wind at my back') 64bit
Writing library : libebml v1.3.3 + libmatroska v1.4.4
Attachements : cover.png
DURATION : 01:37:29.280000000
NUMBER_OF_FRAMES : 1155
NUMBER_OF_BYTES : 66743
_STATISTICS_WRITING_APP : mkvmerge v8.8.0 ('Wind at my back') 64bit
_STATISTICS_WRITING_DATE_UT : 2016-02-28 12:42:41
_STATISTICS_TAGS : BPS DURATION NUMBER_OF_FRAMES NUMBER_OF_BYTES
Video
ID : 1
Format : AVC
Format/Info : Advanced Video Codec
Format profile : High@L4.1
Format settings, CABAC : Yes
Format settings, ReFrames : 12 frames
Codec ID : V_MPEG4/ISO/AVC
Duration : 1h 41mn
Bit rate : 2 639 Kbps
Width : 1 146 pixels
Height : 480 pixels
Display aspect ratio : 2.40:1
Frame rate mode : Constant
Frame rate : 25.000 fps
Color space : YUV
Chroma subsampling : 4:2:0
Bit depth : 8 bits
Scan type : Progressive
Bits/(Pixel*Frame) : 0.192
Stream size : 1.88 GiB (73%)
Title : Who Am I - Kein System ist sicher by_IVAN@190282
Writing library : x264 core 148 r2597kMod e86f3a1
Encoding settings : cabac=1 / ref=12 / deblock=1:-3:-2 / analyse=0x3:0x133 / me=umh / subme=11 / psy=1 / fade_compensate=0.00 / psy_rd=1.00:0.05 / mixed_ref=1 / me_range=48 / chroma_me=1 / trellis=2 / 8x8dct=1 / cqm=0 / deadzone=21,11 / fast_pskip=0 / chroma_qp_offset=-3 / threads=6 / lookahead_threads=6 / sliced_threads=0 / nr=0 / decimate=1 / interlaced=0 / bluray_compat=0 / constrained_intra=0 / fgo=0 / bframes=16 / b_pyramid=2 / b_adapt=2 / b_bias=0 / direct=3 / weightb=1 / open_gop=0 / weightp=2 / keyint=240 / keyint_min=24 / scenecut=40 / intra_refresh=0 / rc_lookahead=60 / rc=crf / mbtree=0 / crf=17.2000 / qcomp=0.60 / qpmin=0 / qpmax=69 / qpstep=4 / vbv_maxrate=50000 / vbv_bufsize=62500 / crf_max=0.0 / nal_hrd=none / filler=0 / ip_ratio=1.40 / pb_ratio=1.30 / aq=2:1.10
Language : English
Default : Yes
Forced : No
Color range : Limited
Color primaries : BT.709
Transfer characteristics : BT.709
Matrix coefficients : BT.709
DURATION : 01:41:47.040000000
NUMBER_OF_FRAMES : 152676
NUMBER_OF_BYTES : 2067098496
_STATISTICS_WRITING_APP : mkvmerge v8.8.0 ('Wind at my back') 64bit
_STATISTICS_WRITING_DATE_UT : 2016-02-28 12:42:41
_STATISTICS_TAGS : BPS DURATION NUMBER_OF_FRAMES NUMBER_OF_BYTES
Audio #1
ID : 2
Format : AC-3
Format/Info : Audio Coding 3
Mode extension : CM (complete main)
Format settings, Endianness : Big
Codec ID : A_AC3
Duration : 1h 41mn
Bit rate mode : Constant
Bit rate : 448 Kbps
Channel(s) : 6 channels
Channel positions : Front: L C R, Side: L R, LFE
Sampling rate : 48.0 KHz
Compression mode : Lossy
Stream size : 326 MiB (12%)
Title : Dub
Language : Russian
Default : Yes
Forced : No
Audio #2
ID : 3
Format : AC-3
Format/Info : Audio Coding 3
Mode extension : CM (complete main)
Format settings, Endianness : Big
Codec ID : A_AC3
Duration : 1h 41mn
Bit rate mode : Constant
Bit rate : 448 Kbps
Channel(s) : 6 channels
Channel positions : Front: L C R, Side: L R, LFE
Sampling rate : 48.0 KHz
Compression mode : Lossy
Stream size : 326 MiB (12%)
Title : Ger
Language : German
Default : No
Forced : No
Text
ID : 4
Format : UTF-8
Codec ID : S_TEXT/UTF8
Codec ID/Info : UTF-8 Plain Text
Title : Rus
Language : Russian
Default : No
Forced : No
Menu
00:00:00.000 : de:Chapter 1
00:04:27.080 : de:Chapter 2
00:11:11.240 : de:Chapter 3
00:18:06.320 : de:Chapter 4
00:24:45.840 : de:Chapter 5
00:29:37.960 : de:Chapter 6
00:36:23.040 : de:Chapter 7
00:41:53.920 : de:Chapter 8
00:48:30.000 : de:Chapter 9
00:55:18.920 : de:Chapter 10
01:01:10.960 : de:Chapter 11
01:06:13.920 : de:Chapter 12
01:09:59.280 : de:Chapter 13
01:17:00.160 : de:Chapter 14
01:23:37.360 : de:Chapter 15
01:37:55.440 : de:Chapter 16
01:41:47.000 : de:Chapter 17

x264 log

VIDEO ENCODING
x264 [info]: frame I:1531 Avg QP:15.06 size: 77020 PSNR Mean Y:48.02 U:51.84 V:51.86 Avg:48.95 Global:48.16
x264 [info]: frame P:34783 Avg QP:16.60 size: 27492 PSNR Mean Y:46.75 U:50.96 V:50.87 Avg:47.72 Global:46.69
x264 [info]: frame B:116362 Avg QP:18.94 size: 8533 PSNR Mean Y:46.12 U:50.80 V:50.73 Avg:47.16 Global:46.10
x264 [info]: consecutive B-frames: 3.7% 3.4% 9.6% 15.6% 19.0% 34.6% 6.4% 1.8% 1.6% 0.9% 1.1% 0.7% 0.5% 0.5% 0.2% 0.1% 0.3%
x264 [total]: encoded 152676 frames, 7.74 fps, 2707.82 kb/s, duration 5:28:36.22

Скриншот c названием фильма

Скриншоты

Убедительная просьба пожалуйста кто скачал не бросайте раздачу!!!
 GOLD TORRENT! DOWNLOAD TRAFFIC DOES NOT CONSIDER! 
Torrent: Registered [ 2017-10-04 03:47 ]   · FF10CD5E7E357C832265D9163C867649AA91DBBB

Download .torrent

Download

13 KB

Status: checked
Completed: 0 times
Size: 2.56 GB
Поделиться:
terms.php
[Profile] [PM]
Display posts:    
Reply to topic

Current time is: 27-Sep 17:29

All times are UTC + 3



You cannot post new topics in this forum
You cannot reply to topics in this forum
You cannot edit your posts in this forum
You cannot delete your posts in this forum
You cannot vote in polls in this forum
You cannot attach files in this forum
You can download files in this forum