Безумный Макс: Дорога ярости / Mad Max: Fury Road (Джордж Миллер / George Miller) [2015, Австралия, США, Фантастика, боевик, триллер, приключения, BDRip-AVC] Dub + Sub Rus, Eng + Original Eng

Reply to topic
DL-List and Torrent activity
Size:  3.01 GB   |    Registered:  3 months 17 days   |    Completed:  0 times

Seeder not seen: Never

 
   
 
 
Author Message

admin ®

Gender: Male

Longevity: 2 years 11 months

Posts: 10017

Post 04-Oct-2017 03:30

[Quote]

Безумный Макс: Дорога яростиMad Max: Fury Road«Какой чудесный день»

Страна: Австралия, США
Жанр: Фантастика, боевик, триллер, приключения
Год выпуска: 2015
Продолжительность: 02:00:21
Перевод: Профессиональный (дублированный) Bluray
Субтитры: русские,английские
Оригинальная аудиодорожка: английский
Режиссер: Джордж Миллер / George Miller
В ролях: Том Харди, Шарлиз Терон, Николас Холт, Хью Кияс-Бёрн, Джош Хелман, Нэйтан Джонс, Зои Кравиц, Роузи Хантингтон-Уайтли, Райли Кио, Эбби Ли
Описание: Преследуемый призраками беспокойного прошлого, Макс уверен, что лучший способ выжить — скитаться в одиночестве. Несмотря на это, он присоединяется к бунтарям, бегущим через всю пустыню на боевой фуре, под предводительством военачальника Фуриосы.
Они пытаются сбежать из Цитадели, страдающей от тирании Несмертного Джо, у которого они забрали кое-что очень ценное. Разъярённый военачальник бросает все свои силы на погоню за мятежниками, ступая на дорогу войны — дорогу ярости.
Доп. информация:
Релиз группы:
Сохранены оригинальные главы как на Bluray
Качество видео: BDRip-AVC | Безумный Макс: Дорога ярости / Mad Max: Fury Road (2015) Blu-Ray Remux (1080p) Kinozal
Формат видео: MKV
Видео: 1008x420 (2:40:1), 23,976 fps, 2613 Кbps, 0.257 bit/pixe
Аудио: 48 kHz, AC3 Dolby Digital, 3/2 (L,C,R,l,r) + LFE ch, ~448.00 kbps avg DUB
Аудио 2: 48 kHz, AC3 Dolby Digital, 3/2 (L,C,R,l,r) + LFE ch, ~448.00 kbps avg ENG
Формат субтитров: softsub (SRT)
Доп. информация о субтитрах: отключаемые srt

MediaInfo

General
Unique ID : 202248298280271269692005242091632114480 (0x98279AFA92923E16BD7BEF5CA90CBB30)
Complete name : D:\Мои рипы\Безумный Макс\Mad.Max.Fury.Road by_IVAN@190282.mkv
Format : Matroska
Format version : Version 4 / Version 2
File size : 3.01 GiB
Duration : 2h 0mn
Overall bit rate : 3 580 Kbps
Encoded date : UTC 2016-02-24 06:58:28
Writing application : mkvmerge v8.8.0 ('Wind at my back') 64bit
Writing library : libebml v1.3.3 + libmatroska v1.4.4
Attachements : cover.jpg
DURATION : 02:00:00.736000000
NUMBER_OF_FRAMES : 1167
NUMBER_OF_BYTES : 25218
_STATISTICS_WRITING_APP : mkvmerge v8.8.0 ('Wind at my back') 64bit
_STATISTICS_WRITING_DATE_UT : 2016-02-24 06:58:28
_STATISTICS_TAGS : BPS DURATION NUMBER_OF_FRAMES NUMBER_OF_BYTES
Video
ID : 1
Format : AVC
Format/Info : Advanced Video Codec
Format profile : High@L4.1
Format settings, CABAC : Yes
Format settings, ReFrames : 12 frames
Codec ID : V_MPEG4/ISO/AVC
Duration : 2h 0mn
Bit rate : 2 613 Kbps
Width : 1 008 pixels
Height : 420 pixels
Display aspect ratio : 2.40:1
Frame rate mode : Constant
Frame rate : 23.976 fps
Color space : YUV
Chroma subsampling : 4:2:0
Bit depth : 8 bits
Scan type : Progressive
Bits/(Pixel*Frame) : 0.257
Stream size : 2.20 GiB (73%)
Title : Mad.Max.Fury.Road by_IVAN@190282
Writing library : x264 core 148 r2579kMod 73ae2d1
Encoding settings : cabac=1 / ref=12 / deblock=1:-3:-3 / analyse=0x3:0x133 / me=umh / subme=11 / psy=1 / fade_compensate=0.00 / psy_rd=1.00:0.05 / mixed_ref=1 / me_range=48 / chroma_me=1 / trellis=2 / 8x8dct=1 / cqm=0 / deadzone=21,11 / fast_pskip=0 / chroma_qp_offset=-3 / threads=6 / lookahead_threads=6 / sliced_threads=0 / nr=0 / decimate=1 / interlaced=0 / bluray_compat=0 / constrained_intra=0 / fgo=0 / bframes=16 / b_pyramid=2 / b_adapt=2 / b_bias=0 / direct=3 / weightb=1 / open_gop=0 / weightp=2 / keyint=240 / keyint_min=23 / scenecut=40 / intra_refresh=0 / rc_lookahead=60 / rc=crf / mbtree=0 / crf=19.1000 / qcomp=0.60 / qpmin=0 / qpmax=69 / qpstep=4 / vbv_maxrate=50000 / vbv_bufsize=62500 / crf_max=0.0 / nal_hrd=none / filler=0 / ip_ratio=1.40 / pb_ratio=1.30 / aq=2:1.10
Language : English
Default : Yes
Forced : No
Color range : Limited
Color primaries : BT.709
Transfer characteristics : BT.709
Matrix coefficients : BT.709
DURATION : 02:00:23.341000000
NUMBER_OF_FRAMES : 173187
NUMBER_OF_BYTES : 2421457081
_STATISTICS_WRITING_APP : mkvmerge v8.8.0 ('Wind at my back') 64bit
_STATISTICS_WRITING_DATE_UT : 2016-02-24 06:58:28
_STATISTICS_TAGS : BPS DURATION NUMBER_OF_FRAMES NUMBER_OF_BYTES
Audio #1
ID : 2
Format : AC-3
Format/Info : Audio Coding 3
Mode extension : CM (complete main)
Format settings, Endianness : Big
Codec ID : A_AC3
Duration : 2h 0mn
Bit rate mode : Constant
Bit rate : 448 Kbps
Channel(s) : 6 channels
Channel positions : Front: L C R, Side: L R, LFE
Sampling rate : 48.0 KHz
Compression mode : Lossy
Stream size : 386 MiB (13%)
Title : Dud
Language : Russian
Default : Yes
Forced : No
Audio #2
ID : 3
Format : AC-3
Format/Info : Audio Coding 3
Mode extension : CM (complete main)
Format settings, Endianness : Big
Codec ID : A_AC3
Duration : 2h 0mn
Bit rate mode : Constant
Bit rate : 448 Kbps
Channel(s) : 6 channels
Channel positions : Front: L C R, Side: L R, LFE
Sampling rate : 48.0 KHz
Compression mode : Lossy
Stream size : 386 MiB (13%)
Title : Eng
Language : English
Default : No
Forced : No
Text #1
ID : 4
Format : UTF-8
Codec ID : S_TEXT/UTF8
Codec ID/Info : UTF-8 Plain Text
Title : Rus
Language : Russian
Default : No
Forced : No
Text #2
ID : 5
Format : UTF-8
Codec ID : S_TEXT/UTF8
Codec ID/Info : UTF-8 Plain Text
Title : Eng
Language : English
Default : No
Forced : No
Menu
00:00:00.000 : :Chapter 1
00:10:42.475 : :Chapter 2
00:19:06.437 : :Chapter 3
00:30:12.310 : :Chapter 4
00:42:55.615 : :Chapter 5
00:49:33.345 : :Chapter 6
00:59:55.175 : :Chapter 7
01:13:02.545 : :Chapter 8
01:22:08.924 : :Chapter 9
01:30:02.731 : :Chapter 10
01:40:39.867 : :Chapter 11
01:49:12.546 : :Chapter 12
01:53:06.279 : :Chapter 13

x264 log

x264 [info]: frame I:1188 Avg QP:18.28 size: 65265 PSNR Mean Y:45.10 U:48.45 V:48.37 Avg:45.93 Global:44.80
x264 [info]: frame P:47642 Avg QP:20.46 size: 25111 PSNR Mean Y:43.41 U:47.32 V:46.94 Avg:44.30 Global:43.19
x264 [info]: frame B:124357 Avg QP:21.08 size: 9228 PSNR Mean Y:43.10 U:47.04 V:46.93 Avg:44.01 Global:42.31
x264 [info]: consecutive B-frames: 4.4% 8.9% 12.6% 31.5% 17.4% 17.8% 2.8% 1.5% 0.5% 0.4% 0.2% 0.5% 0.1% 0.1% 0.1% 0.5% 0.7%
x264 [total]: encoded 173187 frames, 7.80 fps, 2681.81 kb/s, duration 6:10:00.43

Знаете ли Вы что

• По словам Тома Харди, он специально встретился с Мэлом Гибсоном, чтобы обсудить с ним принятие роли Макса. Гибсон поддержал его и дал свое благословение.
• На роль Макса пробовался Лиам Фаунтин, сыгравший в короткометражке «Безумный Макс — ренегат» (2011).
• Ради роли в фильме Шарлиз Терон побрилась налысо.
• Съёмки фильма начались в июле 2012 года в Намибии, спустя почти восемнадцать месяцев после запланированного срока.
• В феврале 2013 года «Намибийская управляющая группа по сохранению побережья» обвинила продюсеров в повреждении частей пустыни Намиб, приведших к сокращению численности видов растений и животных.
• Главную роль хотел сыграть Джереми Реннер.
• Съёмки фильма чуть не начались в 2003 году в Намибии. Тогда предполагалось, что главную роль исполнит Мэл Гибсон. Однако проект был приостановлен по соображениям безопасности, после того как США ужесточили условия транспортировки и ограничили возможность путешествий в данный регион. После начала войны в Ираке проект был заморожен. В итоге Гибсон заинтересовался фильмом «Страсти Христовы» (2004) и покинул проект.
• Изначально в кастинг-листе значилась Тереза Палмер, но была вынуждена покинуть проект из-за задержки производства. Её заменила Эбби Ли.
• Кортни Итон заменила на съёмочной площадке Эделейд Клеменс.
• Сэм Уортингтон и Эрик Бана опровергли слухи о своем участии в съемках фильма, несмотря на широкое распространение этой информации в сети.
• Когда проект находился еще на стадии разработки, на роль Макса рассматривались Майкл Бин и Хит Леджер.
• Берт Ньютон был одним из первых актеров, которого режиссер Джордж Миллер взял в проект, еще когда фильм планировали снимать в Брокен-Хилле (Новый Южный Уэльс, Австралия), там же где проходили съемки фильма «Безумный Макс 2: Воин дороги» (1981). К сожалению, ливневые дожди полностью изменили пустынный ландшафт, и несколько лет спустя было принято решение перенести съемки в Намибию. К тому времени Берт Ньютон решил покинуть проект.
• Создатели фильма консультировались у писательницы и феминистки Ив Энслер, известной по роману «Монологи вагины» (The Vagina Monologues), касательно образов сильных женских персонажей.
• Композитором фильма мог стать Джон Пауэлл.
• Джеймс Фрешвилл пробовался на роль в этом фильме.
• Во время съемок было разбито 8 кинокамер.
• Более 80% эффектов в фильме были сняты вживую. Компьютерная графика использовалась по минимуму лишь для улучшения пейзажа Намибии, для удаления попавшего в кадр оборудования, использовавшегося во время съемок трюков, и для левой руки Шарлиз Терон, которая в фильме является протезом.
• В момент одного из «флэшбеков» Макса, можно заметить кадры из первой части «Безумного Макса». А именно — «выпученные глаза» главного антагониста.

Скриншот c названием фильма

Скриншоты

Убедительная просьба пожалуйста кто скачал не бросайте раздачу!!!
 GOLD TORRENT! DOWNLOAD TRAFFIC DOES NOT CONSIDER! 
Torrent: Registered [ 2020-06-06 06:05 ]   · 282C531E916A1980BA7D0E4A3DE3220917B13103

Download .torrent

Download

15 KB

Status: checked
Completed: 0 times
Size: 3.01 GB
Поделиться:
terms.php
[Profile] [PM]
Display posts:    
Reply to topic

Current time is: 24-Sep 01:52

All times are UTC + 3



You cannot post new topics in this forum
You cannot reply to topics in this forum
You cannot edit your posts in this forum
You cannot delete your posts in this forum
You cannot vote in polls in this forum
You cannot attach files in this forum
You can download files in this forum