Блокбастер (Роман Волобуев) [2017, Россия, криминал, комедия, WEB-DL 1080p] Original Rus

Reply to topic
DL-List and Torrent activity
Size:  2.81 GB   |    Registered:  2 years 11 months   |    Completed:  0 times

Seeder not seen: Never

 
   
 
 
Author Message

admin ®

Gender: Male

Longevity: 3 years

Posts: 10017

Post 25-Oct-2017 09:18

[Quote]

Блокбастер
Страна: Россия
Студия: Hype Film
Жанр: криминал, комедия
Год выпуска: 2017
Продолжительность: 01:21:25
Перевод: Не требуется
Субтитры: нет
Оригинальная аудиодорожка: русский
Режиссер: Роман Волобуев
В ролях: Светлана Устинова, Анна Чиповская, Евгений Цыганов, Юлия Снигирь, Михаил Ефремов, Александр Молочников, Дмитрий Ендальцев, Светлана Ходченкова, Мария Шалаева, Александр Ильин, Сергей Епишев
Описание: Лиза, доведенная до нервного срыва коллегами на опостылевшей работе и распутным бойфрендом, садится в машину и уезжает из Москвы в неизвестном ей самой направлении. Глухой ночью она становится свидетельницей налета на точку микрокредитования в райцентре Электроугли и оказывается в заложниках у ослепительно красивой, но очень плохо соображающей грабительницы по имени Наташа.

Sample
Тип релиза: WEB-DL 1080p
Контейнер: MKV
Видео: MPEG4 AVC Video, H264, 16:9, 1920x806, 24 fps, 4462 kbps
Аудио: Russian (AC3, 6 ch, 384 kbps, 16 bits, 48.0 KHz) - оригинал

MediaInfo

General
Unique ID : 194589892638203380691802037729171438989 (0x9264A66DA7A8F680A2429645DB257D8D)
Complete name : E:\Блокбастер 2017 WEB-DL 1080p.mkv
Format : Matroska
Format version : Version 4 / Version 2
File size : 2.81 GiB
Duration : 1h 21mn
Overall bit rate : 4 945 Kbps
Encoded date : UTC 2017-08-15 11:58:01
Writing application : mkvmerge v8.3.0 ('Over the Horizon') 64bit
Writing library : libebml v1.3.1 + libmatroska v1.4.2
DURATION : 01:21:25.504000000
NUMBER_OF_FRAMES : 152672
NUMBER_OF_BYTES : 234504192
_STATISTICS_WRITING_APP : mkvmerge v8.3.0 ('Over the Horizon') 64bit
_STATISTICS_WRITING_DATE_UTC : 2017-08-15 11:58:01
_STATISTICS_TAGS : BPS DURATION NUMBER_OF_FRAMES NUMBER_OF_BYTES
Video
ID : 1
Format : AVC
Format/Info : Advanced Video Codec
Format profile : High@L4.0
Format settings, CABAC : Yes
Format settings, ReFrames : 5 frames
Codec ID : V_MPEG4/ISO/AVC
Duration : 1h 21mn
Bit rate : 4 462 Kbps
Width : 1 920 pixels
Height : 806 pixels
Display aspect ratio : 2.40:1
Frame rate mode : Constant
Frame rate : 24.000 fps
Color space : YUV
Chroma subsampling : 4:2:0
Bit depth : 8 bits
Scan type : Progressive
Bits/(Pixel*Frame) : 0.120
Stream size : 2.54 GiB (90%)
Language : English
Default : Yes
Forced : No
Color primaries : BT.709
Transfer characteristics : BT.709
Matrix coefficients : BT.709
Audio
ID : 2
Format : AC-3
Format/Info : Audio Coding 3
Mode extension : CM (complete main)
Format settings, Endianness : Big
Codec ID : A_AC3
Duration : 1h 21mn
Bit rate mode : Constant
Bit rate : 384 Kbps
Channel count : 6 channels
Channel positions : Front: L C R, Side: L R, LFE
Sampling rate : 48.0 KHz
Bit depth : 16 bits
Compression mode : Lossy
Stream size : 224 MiB (8%)
Language : Russian
Default : Yes
Forced : No
Menu
00:00:00.000 : en:Глава 1
00:06:08.000 : en:Глава 2
00:11:37.125 : en:Глава 3
00:16:13.291 : en:Глава 4
00:22:34.124 : en:Глава 5
00:28:13.124 : en:Глава 6
00:34:11.999 : en:Глава 7
00:41:00.624 : en:Глава 8
00:46:45.790 : en:Глава 9
00:50:48.790 : en:Глава 10
00:56:24.081 : en:Глава 11
01:00:15.206 : en:Глава 12
01:05:21.372 : en:Глава 13
01:11:53.913 : en:Глава 14

Скриншоты


 GOLD TORRENT! DOWNLOAD TRAFFIC DOES NOT CONSIDER! 
Torrent: Registered [ 2017-10-25 09:18 ]   · 3F7B8DD16470920A0C0E5C3F2A978ABE8B863977

Download .torrent

Download

14 KB

Status: checked
Completed: 0 times
Size: 2.81 GB
Поделиться:
terms.php
[Profile] [PM]
Display posts:    
Reply to topic

Current time is: 28-Sep 07:22

All times are UTC + 3



You cannot post new topics in this forum
You cannot reply to topics in this forum
You cannot edit your posts in this forum
You cannot delete your posts in this forum
You cannot vote in polls in this forum
You cannot attach files in this forum
You can download files in this forum