Бабушка лёгкого поведения (Марюс Вайсберг) [2017, Россия, комедия, WEB-DL 1080p] Original Rus

Reply to topic
DL-List and Torrent activity
Size:  3.14 GB   |    Registered:  2 years 11 months   |    Completed:  0 times

Seeder not seen: 2 years

Leechers:  3  [  0 KB/s  ]   Show peers in full details
 
   
 
 
Author Message

admin ®

Gender: Male

Longevity: 3 years

Posts: 10019

Post 25-Oct-2017 08:52

[Quote]

Бабушка лёгкого поведения
Страна: Россия
Студия: Vice Films
Жанр: комедия
Год выпуска: 2017
Продолжительность: 01:21:23
Перевод: Не требуется
Субтитры: нет
Оригинальная аудиодорожка: русский
Режиссер: Марюс Вайсберг
В ролях: Александр Ревва, Глюкоза, Филипп Киркоров, Елена Валюшкина, Владимир Толоконников, Евгений Герчаков, Ёла Санько, Ольга Благая, Наталья Бардо, Марина Федункив
Описание: Мастер перевоплощений Саня по прозвищу Трансформер провернул кучу афер, точь-в-точь изображая десятки персонажей. Но в этот раз он украл не у тех… Теперь у парня на хвосте очень плохие люди с пистолетами. Саня решает залечь на дно в доме престарелых в образе пожилой тети. И когда ему казалось, что он попал в безвыходную ситуацию, новый поворот судьбы дарит ему любовь и надежду превратиться в приличного человека.

Sample
Тип релиза: WEB-DL 1080p
Контейнер: MKV
Видео: MPEG4 AVC Video, H264, 16:9, 1920x1080, 25 fps, 5027 kbps
Аудио: Russian (AC3, 6 ch, 384 kbps, 16 bits, 48.0 KHz) - оригинал

MediaInfo

General
Unique ID : 252186477007844031462691959652730870415 (0xBDB95948972A74ACA7DB4067C3C51A8F)
Complete name : K:\сериалы сид\Бабушка лёгкого поведения 2017 WEB-DL 1080p.mkv
Format : Matroska
Format version : Version 4 / Version 2
File size : 3.14 GiB
Duration : 1h 21mn
Overall bit rate : 5 520 Kbps
Encoded date : UTC 2017-09-14 20:16:24
Writing application : mkvmerge v15.0.0 ('Duel with the Devil') 64-bit
Writing library : libebml v1.3.5 + libmatroska v1.4.5
DURATION : 01:21:23.000000000
NUMBER_OF_FRAMES : 121911
NUMBER_OF_BYTES : 3134333608
_STATISTICS_WRITING_APP : mkvmerge v15.0.0 ('Duel with the Devil') 64-bit
_STATISTICS_WRITING_DATE_UTC : 2017-09-14 20:16:24
_STATISTICS_TAGS : BPS DURATION NUMBER_OF_FRAMES NUMBER_OF_BYTES
Video
ID : 1
Format : AVC
Format/Info : Advanced Video Codec
Format profile : High@L4.0
Format settings, CABAC : Yes
Format settings, ReFrames : 4 frames
Codec ID : V_MPEG4/ISO/AVC
Duration : 1h 21mn
Bit rate : 5 027 Kbps
Width : 1 920 pixels
Height : 1 080 pixels
Display aspect ratio : 16:9
Frame rate mode : Constant
Frame rate : 25.000 fps
Color space : YUV
Chroma subsampling : 4:2:0
Bit depth : 8 bits
Scan type : Progressive
Bits/(Pixel*Frame) : 0.097
Stream size : 2.86 GiB (91%)
Language : English
Default : Yes
Forced : No
Color primaries : BT.709
Transfer characteristics : BT.709
Matrix coefficients : BT.709
Audio
ID : 2
Format : AC-3
Format/Info : Audio Coding 3
Mode extension : CM (complete main)
Format settings, Endianness : Big
Codec ID : A_AC3
Duration : 1h 21mn
Bit rate mode : Constant
Bit rate : 384 Kbps
Channel count : 6 channels
Channel positions : Front: L C R, Side: L R, LFE
Sampling rate : 48.0 KHz
Bit depth : 16 bits
Compression mode : Lossy
Stream size : 224 MiB (7%)
Language : Russian
Default : Yes
Forced : No
Menu
00:00:00.000 : en:Глава 1
00:06:11.840 : en:Глава 2
00:13:09.240 : en:Глава 3
00:20:45.360 : en:Глава 4
00:27:20.000 : en:Глава 5
00:34:28.520 : en:Глава 6
00:40:12.840 : en:Глава 7
00:44:56.280 : en:Глава 8
00:50:44.320 : en:Глава 9
00:56:21.280 : en:Глава 10
01:00:25.920 : en:Глава 11
01:03:53.480 : en:Глава 12
01:10:30.440 : en:Глава 13
01:17:02.280 : en:Глава 14

Скриншоты


 GOLD TORRENT! DOWNLOAD TRAFFIC DOES NOT CONSIDER! 
Torrent: Registered [ 2017-10-25 08:52 ]   · 8AEC23D8894E73905336E0E625057220B3A7B9EF

Download .torrent

Download

16 KB

Status: checked
Completed: 0 times
Size: 3.14 GB
Поделиться:
terms.php
[Profile] [PM]
Display posts:    
Reply to topic

Current time is: 27-Sep 17:16

All times are UTC + 3



You cannot post new topics in this forum
You cannot reply to topics in this forum
You cannot edit your posts in this forum
You cannot delete your posts in this forum
You cannot vote in polls in this forum
You cannot attach files in this forum
You can download files in this forum