Пес-самурай и город кошек / Paws of Fury: The Legend of Hank (2022) WEB-DL 1080p от New-Team | TVShows

Ответить на тему
Статистика раздачи
Размер:  5.36 GB   |    Зарегистрирован:  1 год 11 месяцев   |    Скачан:  0 раз

Полного источника не было: Никогда

 
   
 
 
Автор Сообщение

admin ®

Статус: Не в сети

Стаж: 6 лет 9 месяцев

Сообщений: 23696

Репутация: 0 [+] [-]

Откуда: Россия

Создавать темы 28-Июл-2022 03:46 | #1

[Цитировать]

Пес-самурай и город кошек / Paws of Fury: The Legend of Hank
Год выпуска: 2022
Выпущено: Великобритания, Китай, Канада, США, Align, Blazing Productions, Comic Animations, Flying Tigers Entertainment, GFM Animation, Huayi Brothers Media
Жанр: Мультфильм, боевик, комедия, семейный
Режиссер: Крис Бэйли, Марк Куцир, Роб Минкофф
В ролях: Майкл Сера, Сэмюэл Л. Джексон, Рики Джервэйс, Кайли Куиока, Мэл Брукс, Джордж Такей, Габриэль Иглесиас, Аасиф Мандви, Джимон Хонсу, Мишель Йео-О фильме: Хэнк — смелый пёс, мечтающий стать самураем, вот только в городе кошек его никто не воспринимает всерьёз. Но когда армия пушистых ниндзя угрожает стереть их городок с лица Земли, Хэнк становится единственной надеждой на спасение. Теперь с помощью мудрого учителя и верных друзей он должен в сжатые сроки овладеть навыками великого воина. Только так у него появится шанс победить в эпической битве с могущественным врагом, вооруженным от усов до хвоста.

Продолжительность: 01:33:35
Перевод: Профессиональный (многоголосый, закадровый) | TVShows
Субтитры: Английские
Формат: MKV
Качество: WEB-DL 1080p
Видео: MPEG-4 AVC, 7830 Кбит/с, 1920x1080
Аудио #1: AC3, 2 ch, 192 Кбит/с | RUS |
Аудио #2: E-AC3, 6 ch, 192 Кбит/с | ENG |

Скриншоты

-

MediaInfo

General
Unique ID : 167115209588300010416288790610069274614 (0x7DB937F831419B404EF142BC2065BFF6)
Complete name : E:TorrentsPaws.of.Fury.2022.1080p_от New-Team.mkv
Format : Matroska
Format version : Version 4
File size : 5.36 GiB
Duration : 1 h 33 min
Overall bit rate : 8 204 kb/s
Movie name : Paws.of.Fury.2022.1080p_от New-Team
Encoded date : UTC 2022-07-27 05:55:51
Writing application : mkvmerge v59.0.0 ('Shining Star') 64-bit
Writing library : libebml v1.4.2 + libmatroska v1.6.4
Video
ID : 1
Format : AVC
Format/Info : Advanced Video Codec
Format profile : [email protected]
Format settings : CABAC / 2 Ref Frames
Format settings, CABAC : Yes
Format settings, Reference : 2 frames
Codec ID : V_MPEG4/ISO/AVC
Duration : 1 h 33 min
Bit rate mode : Constant
Bit rate : 7 830 kb/s
Width : 1 920 pixels
Height : 1 080 pixels
Display aspect ratio : 16:9
Frame rate mode : Constant
Frame rate : 25.000 FPS
Color space : YUV
Chroma subsampling : 4:2:0
Bit depth : 8 bits
Scan type : Progressive
Bits/(Pixel*Frame) : 0.151
Stream size : 5.11 GiB (95%)
Language : English
Default : Yes
Forced : No
Audio #1
ID : 2
Format : AC-3
Format/Info : Audio Coding 3
Commercial name : Dolby Digital
Codec ID : A_AC3
Duration : 1 h 33 min
Bit rate mode : Constant
Bit rate : 192 kb/s
Channel(s) : 2 channels
Channel layout : L R
Sampling rate : 48.0 kHz
Frame rate : 31.250 FPS (1536 SPF)
Compression mode : Lossy
Stream size : 129 MiB (2%)
Title : MVO - TVShows
Language : Russian
Service kind : Complete Main
Default : Yes
Forced : No
Audio #2
ID : 3
Format : E-AC-3
Format/Info : Enhanced AC-3
Commercial name : Dolby Digital Plus
Codec ID : A_EAC3
Duration : 1 h 33 min
Bit rate mode : Constant
Bit rate : 192 kb/s
Channel(s) : 6 channels
Channel layout : L R C LFE Ls Rs
Sampling rate : 48.0 kHz
Frame rate : 31.250 FPS (1536 SPF)
Compression mode : Lossy
Stream size : 129 MiB (2%)
Language : English
Service kind : Complete Main
Default : No
Forced : No
Text
ID : 4
Format : UTF-8
Codec ID : S_TEXT/UTF8
Codec ID/Info : UTF-8 Plain Text
Duration : 1 h 33 min
Bit rate : 69 b/s
Count of elements : 1635
Stream size : 47.2 KiB (0%)
Language : English
Default : No
Forced : No
[ivtracker.org].t36182.torrent 
 ЗОЛОТАЯ РАЗДАЧА! СКАЧАННОЕ НЕ ЗАСЧИТЫВАЕТСЯ! 
Торрент: Зарегистрирован [ 2022-07-28 03:46 ] · FE2405E5B6D5DE4DD1F7D33E3E0C324864FE3590

Скачать .torrent

Скачать

14 KB

Статус: проверено · admin · 1 год 11 месяцев назад
Скачан: 0 раз
Размер: 5.36 GB
Поделиться:
 
Похожие темы
[Профиль] [ЛС]
Вернуться к началу
Показать сообщения:    
Ответить на тему

Текущее время: 13-Июл 04:12

Часовой пояс: UTC + 3



Вы не можете начинать темы
Вы не можете отвечать на сообщения
Вы не можете редактировать свои сообщения
Вы не можете удалять свои сообщения
Вы не можете голосовать в опросах
Вы не можете прикреплять файлы к сообщениям
Вы можете скачивать файлы