Танцы насмерть (Андрей Волгин) [2017, Фантастика, BDRip-AVC]

Reply to topic
 
Author Message

admin ®

Gender: Male

Longevity: 3 years

Posts: 10018

Post 17-Oct-2017 03:08

[Quote]

Танцы насмерть «Танцуй или умри!»

Жанр: Фантастика
Год выпуска: 2017
Продолжительность: 01:38:24
Режиссёр: Андрей Волгин
В ролях: Иван Жвакин, Лукерья Ильяшенко, Никита Волков, Агния Дитковските, Денис Шведов, Александр Тютин, Ола Кейру, Ульяна Куликова, Виктор Хоркин, Евгений Михеев, Карина Иванова
Описание: 2070 год. Москва. Мир лежит в руинах после ядерной войны. Выживание человечества зависит от энергии, которую отдают участники жестокого танцевального турнира. Но когда один из претендентов влюбляется в девушку, участницу состязания, и решает любой ценой спасти её жизнь, отлаженная система оказывается под угрозой.
Доп. информация:
Релиз группы:
Сохранены оригинальные главы как на Bluray
Качество видео: BDRip-AVC | THE_ARENA_FRA_BLUEBIRD |
Формат видео: MKV
Видео: 1152x484 (2:40:1), 25,00 fps, 4164 Кbps, 0.299 bit/pixe
Аудио: 48 kHz, AC3 Dolby Digital, 3/2 (L,C,R,l,r) + LFE ch, ~448.00 kbps avg RUS

MediaInfo

General
Unique ID : 203444809883237587000712976497257349934 (0x990E0B8E312EB9D69DC95F6CC21A032E)
Complete name : F:\Мои рипы\Танцы насмерть\Tantsy nasmert by_IVAN@190282.mkv
Format : Matroska
Format version : Version 4 / Version 2
File size : 3.24 GiB
Duration : 1h 38mn
Overall bit rate : 4 706 Kbps
Movie name : Tantsy nasmert by_IVAN@190282
Encoded date : UTC 2017-10-16 22:42:17
Writing application : mkvmerge v17.0.0 ('Be Ur Friend') 64-bit
Writing library : libebml v1.3.5 + libmatroska v1.4.8
DURATION : 01:38:26.624000000
NUMBER_OF_FRAMES : 184582
NUMBER_OF_BYTES : 330770944
_STATISTICS_WRITING_APP : mkvmerge v17.0.0 ('Be Ur Friend') 64-bit
_STATISTICS_WRITING_DATE_UTC : 2017-10-16 22:42:17
_STATISTICS_TAGS : BPS DURATION NUMBER_OF_FRAMES NUMBER_OF_BYTES
Attachment : Yes
Video
ID : 1
Format : AVC
Format/Info : Advanced Video Codec
Format profile : High@L4.1
Format settings, CABAC : Yes
Format settings, ReFrames : 11 frames
Codec ID : V_MPEG4/ISO/AVC
Duration : 1h 38mn
Bit rate : 4 164 Kbps
Width : 1 152 pixels
Height : 484 pixels
Display aspect ratio : 2.40:1
Frame rate mode : Constant
Frame rate : 25.000 fps
Color space : YUV
Chroma subsampling : 4:2:0
Bit depth : 8 bits
Scan type : Progressive
Bits/(Pixel*Frame) : 0.299
Stream size : 2.86 GiB (88%)
Title : Tantsy nasmert by_IVAN@190282
Writing library : x264 core 152 r2851kMod ba24899
Encoding settings : cabac=1 / ref=11 / deblock=1:-3:-3 / analyse=0x3:0x113 / me=umh / subme=11 / psy=1 / fade_compensate=0.00 / psy_rd=1.00:0.05 / mixed_ref=1 / me_range=48 / chroma_me=1 / trellis=2 / 8x8dct=1 / cqm=0 / deadzone=21,11 / fast_pskip=0 / chroma_qp_offset=-3 / threads=6 / lookahead_threads=6 / sliced_threads=0 / nr=0 / decimate=1 / interlaced=0 / bluray_compat=0 / constrained_intra=0 / bframes=16 / b_pyramid=2 / b_adapt=2 / b_bias=0 / direct=3 / weightb=1 / open_gop=0 / weightp=2 / keyint=240 / keyint_min=24 / scenecut=40 / intra_refresh=0 / rc_lookahead=60 / rc=crf / mbtree=1 / crf=19.6000 / qcomp=0.60 / qpmin=0 / qpmax=69 / qpstep=4 / vbv_maxrate=50000 / vbv_bufsize=62500 / crf_max=0.0 / nal_hrd=none / filler=0 / ip_ratio=1.40 / aq=3:0.80
Language : English
Default : Yes
Forced : No
Color primaries : BT.709
Transfer characteristics : BT.709
Matrix coefficients : BT.709
DURATION : 01:38:26.600000000
NUMBER_OF_FRAMES : 147665
NUMBER_OF_BYTES : 3141774662
_STATISTICS_WRITING_APP : mkvmerge v17.0.0 ('Be Ur Friend') 64-bit
_STATISTICS_WRITING_DATE_UTC : 2017-10-16 22:42:17
_STATISTICS_TAGS : BPS DURATION NUMBER_OF_FRAMES NUMBER_OF_BYTES
Audio
ID : 2
Format : AC-3
Format/Info : Audio Coding 3
Mode extension : CM (complete main)
Format settings, Endianness : Big
Codec ID : A_AC3
Duration : 1h 38mn
Bit rate mode : Constant
Bit rate : 448 Kbps
Channel(s) : 6 channels
Channel positions : Front: L C R, Side: L R, LFE
Sampling rate : 48.0 KHz
Bit depth : 16 bits
Compression mode : Lossy
Stream size : 315 MiB (10%)
Title : Rus
Language : Russian
Default : Yes
Forced : No
Menu
00:00:00.000 : en:00:00:00.000
00:18:06.920 : en:00:18:06.920
00:32:41.720 : en:00:32:41.720
00:48:39.760 : en:00:48:39.760
01:05:24.040 : en:01:05:24.040
01:21:15.040 : en:01:21:15.040

x264 log

VIDEO ENCODING
x264 Q19.6 1152x484 25.000fps (147665 frames)
avs4x26x.exe: -L x264_64.exe --crf 19.6 --preset placebo --tune film --profile high --level 4.1 --ref 11 --aq-mode 3 --aq-strength 0.8 --deblock -3:-3 --merange 48 --psy-rd 1.00:0.05 --threads 6 --me umh --lookahead-threads 6 --keyint 240 --colorprim bt709 --transfer bt709 --colormatrix bt709 --vbv-bufsize 62500 --vbv-maxrate 50000 --partitions p8x8,b8x8,i4x4,i8x8 --psnr --ssim --sar 1:1 --output "C:\GOTOVIE FAILI DLIA RIPOV\Tanci na smert\Tantsy nasmert by_IVAN@190282.mkv" "D:\Temp\0005.avs"
raw [info]: 1152x484p 1:1 @ 25/1 fps (cfr)
x264 [warning]: --psnr used with psy on: results will be invalid!
x264 [warning]: --tune psnr should be used if attempting to benchmark psnr!
x264 [info]: using SAR=1/1
x264 [info]: using cpu capabilities: MMX2 SSE2Fast SSSE3 SSE4.2 AVX FMA3 BMI2 AVX2
x264 [info]: profile High, level 4.1
x264 [info]: cabac=1 ref=11 deblock=1:-3:-3 analyse=0x3:0x113 me=umh subme=11 psy=1 fade_compensate=0.00 psy_rd=1.00:0.05 mixed_ref=1 me_range=48 chroma_me=1 trellis=2 8x8dct=1 cqm=0 deadzone=21,11 fast_pskip=0 chroma_qp_offset=-3 threads=6 lookahead_threads=6 sliced_threads=0 nr=0 decimate=1 interlaced=0 bluray_compat=0 constrained_intra=0 bframes=16 b_pyramid=2 b_adapt=2 b_bias=0 direct=3 weightb=1 open_gop=0 weightp=2 keyint=240 keyint_min=24 scenecut=40 intra_refresh=0 rc_lookahead=60 rc=crf mbtree=1 crf=19.6000 qcomp=0.60 qpmin=0 qpmax=69 qpstep=4 vbv_maxrate=50000 vbv_bufsize=62500 crf_max=0.0 nal_hrd=none filler=0 ip_ratio=1.40 aq=3:0.80
x264 [info]: frame I:1178 Avg QP:16.69 size: 96698 PSNR Mean Y:45.03 U:54.02 V:53.05 Avg:46.46 Global:46.15
x264 [info]: frame P:32095 Avg QP:18.90 size: 36793 PSNR Mean Y:41.30 U:52.41 V:51.34 Avg:42.80 Global:42.38
x264 [info]: frame B:114392 Avg QP:19.50 size: 16146 PSNR Mean Y:40.01 U:51.62 V:50.42 Avg:41.57 Global:41.22
x264 [info]: consecutive B-frames: 3.0% 3.1% 7.1% 14.6% 13.1% 48.0% 5.7% 0.7% 2.2% 0.7% 1.0% 0.4% 0.1% 0.1% 0.1% 0.0% 0.2%
x264 [info]: mb I I16..4: 9.2% 66.8% 24.0%
x264 [info]: mb P I16..4: 0.7% 13.0% 2.3% P16..4: 29.8% 38.4% 11.1% 0.0% 0.0% skip: 4.8%
x264 [info]: mb B I16..4: 0.0% 2.0% 0.3% B16..8: 44.5% 21.9% 5.1% direct: 6.6% skip:19.5% L0:46.8% L1:45.4% BI: 7.8%
x264 [info]: 8x8 transform intra:80.9% inter:59.8%
x264 [info]: direct mvs spatial:100.0% temporal:0.0%
x264 [info]: coded y,uvDC,uvAC intra: 92.0% 61.9% 24.5% inter: 37.8% 16.6% 0.6%
x264 [info]: i16 v,h,dc,p: 21% 26% 8% 45%
x264 [info]: i8 v,h,dc,ddl,ddr,vr,hd,vl,hu: 8% 7% 9% 11% 15% 14% 14% 12% 12%
x264 [info]: i4 v,h,dc,ddl,ddr,vr,hd,vl,hu: 31% 10% 4% 7% 11% 11% 9% 9% 9%
x264 [info]: i8c dc,h,v,p: 30% 33% 20% 17%
x264 [info]: Weighted P-Frames: Y:5.6% UV:3.3%
x264 [info]: ref P L0: 44.3% 10.6% 18.1% 7.2% 5.5% 4.0% 3.5% 1.9% 1.7% 1.4% 1.5% 0.2% 0.0%
x264 [info]: ref B L0: 74.3% 11.4% 5.8% 2.7% 1.9% 1.5% 1.1% 0.7% 0.4% 0.2%
x264 [info]: ref B L1: 94.1% 5.9%
x264 [info]: SSIM Mean Y:0.9408802 (12.283db)
x264 [info]: PSNR Mean Y:40.330 U:51.810 V:50.641 Avg:41.879 Global:41.471 kb/s:4255.27
x264 [total]: encoded 147665 frames, 1.67 fps, 4255.27 kb/s, duration 24:33:03.06

Скриншот c названием фильма

Скриншоты

Убедительная просьба пожалуйста кто скачал не бросайте раздачу!!!
[Profile] [PM]
Display posts:    
Reply to topic

Current time is: 29-Sep 09:52

All times are UTC + 3



You cannot post new topics in this forum
You cannot reply to topics in this forum
You cannot edit your posts in this forum
You cannot delete your posts in this forum
You cannot vote in polls in this forum
You cannot attach files in this forum
You can download files in this forum