Летчик (2021) WEB-DLRip 720p | КиноПоиск HD

Reply to topic
DL-List and Torrent activity [Update пиров]
Size:  2.18 GB   |    Registered:  5 days   |    Completed:  0 times
Seeders:  308  [  0 KB/s  ]   Leechers:  10  [  0 KB/s  ]   Show peers in full details
 
   
 
 
Author Message

admin ®

Gender: Male

Longevity: 4 years 3 months

Posts: 14738

Post 14-Jan-2022 06:45

[Quote]

Информация о фильме
Название: Летчик
Год выхода: 2021
Жанр: Военный, биография, драма, история
Режиссер: Ренат Давлетьяров
В ролях: Пётр Фёдоров, Анна Пескова, Павел Осадчий, Максим Емельянов, Елена Дробышева, Евгений Михеев, Гела Месхи, Роман Книжка, Марчин Стец, Николоз Паикридзе
О фильме:
Декабрь 1941 года. Летчик Николай Комлев успешно выполняет приказ и уничтожает немецкую танковую колонну, движущуюся к Москве. Но самолет Комлева подбит вражескими истребителями, и летчик чудом сажает свой Ил-2 на глухую лесную поляну. Кажется, самое страшное позади — он выжил в воздушном бою. Однако испытания только начинаются: раненому Комлеву предстоит проделать немыслимый путь, превозмогая мороз, боль и голод, спасаясь от волков и спецотряда нацистов, задача которых — найти его во что бы то ни стало. Летчика ведут воля к жизни, мужество и, конечно, любовь. Дома его ждет Ольга, именно ее образ согревает его в стужу и помогает двигаться вперед, к спасению. У него лишь один шанс выжить, чтобы вернуться к любимой, снова подняться в небо и победить.

Страна: Россия
Студия: ДАПродакшн, Интерфест, Star Media
Продолжительность: 01:41:01
Озвучивание: Оригинальное | КиноПоиск HD
Субтитры: Отсутствуют
Файл
Формат: Matroska
Качество: WEB-DLRip 720p
Видео: 1272x534 at 25.000 fps, x264@L4.1, ~2647 kbps
Аудио: AC3, 6 ch, ~448 kbps - | Русский |
► Без Рекламы!

M/I

x264 [info]: frame I:1023 Avg QP:16.09 size: 87047
x264 [info]: frame P:32699 Avg QP:18.25 size: 28236
x264 [info]: frame B:117795 Avg QP:20.09 size: 8364
General
Unique ID : 147483599584978274232754035897245478520 (0x6EF44EDDFB53C97BE47BA82B5715AE78)
Complete name : K:Letchik.2021.KP.WEB-DLRip.x264.720p.mkv
Format : Matroska
Format version : Version 4
File size : 2.18 GiB
Duration : 1 h 41 min
Overall bit rate : 3 087 kb/s
Encoded date : UTC 2021-12-24 21:15:37
Writing application : mkvmerge v63.0.0 ('Everything') 64-bit
Writing library : libebml v1.4.2 + libmatroska v1.6.4
Cover : Yes
Attachments : cover.jpg / cover 2.jpg
Video
ID : 1
Format : AVC
Format/Info : Advanced Video Codec
Format profile : High@L4.1
Format settings : CABAC / 12 Ref Frames
Format settings, CABAC : Yes
Format settings, Reference : 12 frames
Codec ID : V_MPEG4/ISO/AVC
Duration : 1 h 41 min
Bit rate : 2 647 kb/s
Width : 1 272 pixels
Height : 534 pixels
Display aspect ratio : 2.40:1
Frame rate mode : Constant
Frame rate : 25.000 FPS
Color space : YUV
Chroma subsampling : 4:2:0
Bit depth : 8 bits
Scan type : Progressive
Bits/(Pixel*Frame) : 0.156
Stream size : 1.86 GiB (85%)
Title : -=DoMiNo=-
Writing library : x264 core 164 r3079 d9a19f0
Encoding settings : cabac=1 / ref=12 / deblock=1:-2:-2 / analyse=0x3:0x133 / me=umh / subme=9 / psy=1 / psy_rd=1.00:0.15 / mixed_ref=1 / me_range=32 / chroma_me=1 / trellis=2 / 8x8dct=1 / cqm=0 / deadzone=21,11 / fast_pskip=0 / chroma_qp_offset=-3 / threads=17 / lookahead_threads=4 / sliced_threads=0 / nr=0 / decimate=0 / interlaced=0 / bluray_compat=0 / constrained_intra=0 / bframes=10 / b_pyramid=2 / b_adapt=2 / b_bias=0 / direct=3 / weightb=1 / open_gop=0 / weightp=2 / keyint=250 / keyint_min=25 / scenecut=40 / intra_refresh=0 / rc_lookahead=60 / rc=2pass / mbtree=0 / bitrate=2647 / ratetol=1.0 / qcomp=0.65 / qpmin=0 / qpmax=69 / qpstep=4 / cplxblur=20.0 / qblur=0.5 / vbv_maxrate=50000 / vbv_bufsize=62500 / nal_hrd=none / filler=0 / ip_ratio=1.40 / pb_ratio=1.30 / aq=1:0.90
Language : English
Default : Yes
Forced : No
Audio
ID : 2
Format : AC-3
Format/Info : Audio Coding 3
Commercial name : Dolby Digital
Codec ID : A_AC3
Duration : 1 h 41 min
Bit rate mode : Constant
Bit rate : 448 kb/s
Channel(s) : 6 channels
Channel layout : L R C LFE Ls Rs
Sampling rate : 48.0 kHz
Frame rate : 31.250 FPS (1536 SPF)
Compression mode : Lossy
Stream size : 324 MiB (15%)
Title : Original AC3 (KinoPoisk HD)
Language : Russian
Service kind : Complete Main
Default : Yes
Forced : No

Скриншоты

 GOLD TORRENT! DOWNLOAD TRAFFIC DOES NOT CONSIDER! 
Torrent: Registered [ 2022-01-14 06:45 ]   · 57EE1D6B3AE65662EAB9B2E73737A8264F668CA9

Download .torrent

Download

88 KB

Status: checked
Completed: 0 times
Size: 2.18 GB
Поделиться:
terms.php
[Profile] [PM]
Display posts:    
Reply to topic

Current time is: 19-Jan 13:27

All times are UTC + 3



You cannot post new topics in this forum
You cannot reply to topics in this forum
You cannot edit your posts in this forum
You cannot delete your posts in this forum
You cannot vote in polls in this forum
You cannot attach files in this forum
You can download files in this forum