Операция «Бангкок» / Cim duk sin fung / Heroes Return / Operation Bangkok (2021) BDRip 1080p | L1

Reply to topic
DL-List and Torrent activity [Update пиров]
Size:  7.59 GB   |    Registered:  5 days   |    Completed:  0 times
Seeders:  5  [  0 KB/s  ]   Leechers:  4  [  0 KB/s  ]   Show peers in full details
 
   
 
 
Author Message

admin ®

Gender: Male

Longevity: 4 years 3 months

Posts: 14738

Post 14-Jan-2022 06:24

[Quote]

Информация о фильме
Название: Операция «Бангкок»
Оригинальное название: Cim duk sin fung / Heroes Return / Operation Bangkok
Год выхода: 2021
Жанр: Боевик
Режиссер: Кен Ип
В ролях: Кэти Чоу, Ракель Сюй, Рэй Лю, Чу Сюй, Бяо Юэнь, Паваритх Монколписит, Лю Вэйсэнь, Хуан Гуань
О фильме:
На секретной базе проводят эксперименты над людьми для создания препарата, позволяющего продлить жизнь. Ветеран боевых действий У Вэй (Рэй Луй) и несколько его товарищей проникают на базу, где спасают полицейского Гао Тяньмина (Юэнь Бяо), который два года собирал доказательства против главаря бандитов Ду Си. Силы не равны и наши герои отступают, но в скором времени они вернутся.

Страна: Гонконг
Студия: My Way Film Company
Продолжительность: 01:29:29
Перевод: Любительский одноголосый | Виктор Береговых
Файл
Кодек: x.264
Качество: BDRip 1080p | Operation.Bangkok.2021.CHINESE.1080p.BluRay.x264
Видео: MPEG-4 AVC, 9975 Kбит/с, 1920x816, 25.000 кадр/с
Аудио #1: Русский (АС3, 6 ch, 640 Кбит/с, 48.0 KHz) Любительский (одноголосый, закадровый) Виктор Береговых
Аудио #2: Китайский (DTS, 6 ch, 1509 Кбит/с, 48.0 KHz)

Субтитры: Русские (Full), английские, китайские
► Без Рекламы!

MediaInfo

Источник: Operation.Bangkok.2021.CHINESE.1080p.BluRay.x264.DD5.1-HANDJOB
General
Unique ID : 211454598529228144709494798764818972870 (0x9F14ACA024817B49BD107053024A40C6)
Complete name : Operation.Bangkok.2021.BDRip.1080p.mkv
Format : Matroska
Format version : Version 4
File size : 7.59 GiB
Duration : 1 h 29 min
Overall bit rate : 12.1 Mb/s
Movie name : Operation Bangkok [2021] 1080p BluRay - HJ
Encoded date : UTC 2022-01-13 16:40:35
Writing application : mkvmerge v7.1.0 ('Good Love') 64bit built on Jul 27 2014 13:06:55
Writing library : libebml v1.3.0 + libmatroska v1.4.1
Video
ID : 1
Format : AVC
Format/Info : Advanced Video Codec
Format profile : High@L4.1
Format settings : CABAC / 5 Ref Frames
Format settings, CABAC : Yes
Format settings, Reference fra : 5 frames
Codec ID : V_MPEG4/ISO/AVC
Duration : 1 h 29 min
Bit rate : 9 975 kb/s
Width : 1 920 pixels
Height : 816 pixels
Display aspect ratio : 2.35:1
Frame rate mode : Constant
Frame rate : 25.000 FPS
Color space : YUV
Chroma subsampling : 4:2:0
Bit depth : 8 bits
Scan type : Progressive
Bits/(Pixel*Frame) : 0.255
Stream size : 6.24 GiB (82%)
Writing library : x264 core 164 r3065 ae03d92
Encoding settings : cabac=1 / ref=5 / deblock=1:-3:-3 / analyse=0x3:0x133 / me=umh / subme=10 / psy=1 / psy_rd=1.00:0.00 / mixed_ref=1 / me_range=32 / chroma_me=1 / trellis=2 / 8x8dct=1 / cqm=0 / deadzone=21,11 / fast_pskip=0 / chroma_qp_offset=-2 / threads=25 / lookahead_threads=6 / sliced_threads=0 / nr=0 / decimate=0 / interlaced=0 / bluray_compat=0 / constrained_intra=0 / bframes=16 / b_pyramid=2 / b_adapt=2 / b_bias=0 / direct=3 / weightb=1 / open_gop=0 / weightp=2 / keyint=250 / keyint_min=25 / scenecut=40 / intra_refresh=0 / rc_lookahead=60 / rc=crf / mbtree=0 / crf=18.0 / qcomp=0.60 / qpmin=0 / qpmax=69 / qpstep=4 / vbv_maxrate=62500 / vbv_bufsize=78125 / crf_max=0.0 / nal_hrd=none / filler=0 / ip_ratio=1.40 / pb_ratio=1.30 / aq=2:1.00
Language : Chinese
Default : Yes
Forced : No
Color range : Limited
Color primaries : BT.709
Transfer characteristics : BT.709
Matrix coefficients : BT.709
Audio #1
ID : 2
Format : AC-3
Format/Info : Audio Coding 3
Commercial name : Dolby Digital
Codec ID : A_AC3
Duration : 1 h 29 min
Bit rate mode : Constant
Bit rate : 640 kb/s
Channel(s) : 6 channels
Channel layout : L R C LFE Ls Rs
Sampling rate : 48.0 kHz
Frame rate : 31.250 FPS (1536 SPF)
Compression mode : Lossy
Stream size : 410 MiB (5%)
Title : VO | Виктор Береговых
Language : Russian
Service kind : Complete Main
Default : Yes
Forced : No
Audio #2
ID : 3
Format : DTS
Format/Info : Digital Theater Systems
Codec ID : A_DTS
Duration : 1 h 29 min
Bit rate mode : Constant
Bit rate : 1 509 kb/s
Channel(s) : 6 channels
Channel layout : C L R Ls Rs LFE
Sampling rate : 48.0 kHz
Frame rate : 93.750 FPS (512 SPF)
Bit depth : 16 bits
Compression mode : Lossy
Stream size : 966 MiB (12%)
Title : Cantonese
Language : Chinese
Default : No
Forced : No
Text #1
ID : 4
Format : UTF-8
Codec ID : S_TEXT/UTF8
Codec ID/Info : UTF-8 Plain Text
Duration : 1 h 25 min
Bit rate : 40 b/s
Count of elements : 854
Stream size : 25.3 KiB (0%)
Title : Виктор Береговых
Language : Russian
Default : No
Forced : No
Text #2
ID : 5
Format : UTF-8
Codec ID : S_TEXT/UTF8
Codec ID/Info : UTF-8 Plain Text
Duration : 1 h 25 min
Bit rate : 26 b/s
Count of elements : 940
Stream size : 16.9 KiB (0%)
Language : English
Default : No
Forced : No
Text #3
ID : 6
Format : PGS
Muxing mode : zlib
Codec ID : S_HDMV/PGS
Codec ID/Info : Picture based subtitle format used on BDs/HD-DVDs
Duration : 1 h 25 min
Bit rate : 8 018 b/s
Count of elements : 1566
Stream size : 4.92 MiB (0%)
Title : English
Language : English
Default : No
Forced : No
Text #4
ID : 7
Format : PGS
Muxing mode : zlib
Codec ID : S_HDMV/PGS
Codec ID/Info : Picture based subtitle format used on BDs/HD-DVDs
Duration : 1 h 25 min
Bit rate : 7 559 b/s
Count of elements : 1567
Stream size : 4.64 MiB (0%)
Language : Chinese
Default : No
Forced : No
Menu
00:00:00.000 : en:Chapter 01
00:08:20.400 : en:Chapter 02
00:18:25.080 : en:Chapter 03
00:24:38.400 : en:Chapter 04
00:30:11.840 : en:Chapter 05
00:36:00.440 : en:Chapter 06
00:41:46.840 : en:Chapter 07
00:51:11.840 : en:Chapter 08
01:00:22.960 : en:Chapter 09
01:04:13.720 : en:Chapter 10
01:11:36.920 : en:Chapter 11
01:20:48.360 : en:Chapter 12

Скриншоты

 GOLD TORRENT! DOWNLOAD TRAFFIC DOES NOT CONSIDER! 
Torrent: Registered [ 2022-01-14 06:24 ]   · BBF29BFCAA4012891EFA60824D11EDAEB101A631

Download .torrent

Download

20 KB

Status: checked
Completed: 0 times
Size: 7.59 GB
Поделиться:
terms.php
[Profile] [PM]
Display posts:    
Reply to topic

Current time is: 19-Jan 14:04

All times are UTC + 3



You cannot post new topics in this forum
You cannot reply to topics in this forum
You cannot edit your posts in this forum
You cannot delete your posts in this forum
You cannot vote in polls in this forum
You cannot attach files in this forum
You can download files in this forum