Митчеллы против машин / The Mitchells vs. the Machines (2021) BDRip 720p от селезень | Netflix

Ответить на тему
Статистика раздачи
Размер:  8.9 GB   |    Зарегистрирован:  2 года 7 месяцев   |    Скачан:  0 раз

Полного источника не было: Никогда

 
   
 
 
Автор Сообщение

admin ®

Статус: Не в сети

Стаж: 6 лет 9 месяцев

Сообщений: 23696

Репутация: 0 [+] [-]

Откуда: Россия

Создавать темы 07-Дек-2021 05:10 | #1

[Цитировать]

Информация о фильме
Название: Митчеллы против машин
Оригинальное название: The Mitchells vs. the Machines
Год выхода: 2021
Жанр: Мультфильм, фантастика, комедия, приключения, семейный
Режиссер: Майкл Рианда, Джефф Роу
В ролях: Дэйв Фоли, Эбби Джейкобсон, Дэнни МакБрайд, Майя Рудольф, Эрик Андре, Майкл Рианда

О фильме: Мультфильм рассказывает о не самой дружной, но все же любящей семье Митчеллов, которые отправляются в поездку и сталкиваются с восстанием машин. Оказывается, что по всему миру все электронные устройства, от мобильных до автомобилей с автопилотом, настроились против людей. Митчеллам приходится отложить все личные проблемы, чтобы спасти человечество.
Страна: США, Канада, Франция
Студия: Columbia Pictures Corporation, Lord Miller, Sony Pictures Animation
Продолжительность: 01:49:38
Перевод: Дублированный | Netflix
Качество: BDRip 720p
Видео: MPEG-4 AVC, 1280x692, 9642 Kbit/s, 23.976 fps
Аудио #01: 48 kHz, E-AC3, 5.1, 640 Kbps | Дублированный | Netflix | RUS |
Аудио #02: 48 kHz, AC3, 5.1, 640 Kbps | Дублированный | Netflix | RUS |
Аудио #03: 48 kHz, AC3, 5.1, 640 Kbps | Оригинал | ENG |
Субтитры: Русские (Forced, full), английские

Скриншоты

MI

General
Unique ID : 221916233344440278439291537165854170058 (0xA6F3830B8262BC1FC192E7867FCBDBCA)
Complete name : E:VideoThe.Mitchells.vs.the.Machines.2021.BDRip.720p.seleZen.mkv
Format : Matroska
Format version : Version 4
File size : 8.90 GiB
Duration : 1 h 54 min
Overall bit rate : 11.2 Mb/s
Movie name : The Mitchells vs. the Machines 2021 from seleZen
Encoded date : UTC 2021-12-05 22:08:39
Writing application : mkvmerge v59.0.0 ('Shining Star') 64-bit
Writing library : libebml v1.4.2 + libmatroska v1.6.4
Video
ID : 1
Format : AVC
Format/Info : Advanced Video Codec
Format profile : [email protected]
Format settings : CABAC / 9 Ref Frames
Format settings, CABAC : Yes
Format settings, Reference frames : 9 frames
Codec ID : V_MPEG4/ISO/AVC
Duration : 1 h 49 min
Bit rate : 9 642 kb/s
Width : 1 280 pixels
Height : 692 pixels
Display aspect ratio : 1.85:1
Frame rate mode : Constant
Frame rate : 23.976 (24000/1001) FPS
Color space : YUV
Chroma subsampling : 4:2:0
Bit depth : 8 bits
Scan type : Progressive
Bits/(Pixel*Frame) : 0.454
Stream size : 7.38 GiB (83%)
Title : MTeam
Writing library : x264 core 157 r2938 2b00a84 TnP@MTeam Mod
Encoding settings : cabac=1 / ref=9 / deblock=1:-3:-3 / analyse=0x3:0x133 / me=umh / subme=10 / psy=1 / psy_rd=1.05:0.00 / mixed_ref=1 / me_range=32 / chroma_me=1 / trellis=2 / 8x8dct=1 / cqm=0 / deadzone=21,11 / fast_pskip=0 / chroma_qp_offset=-2 / threads=12 / lookahead_threads=2 / sliced_threads=0 / nr=0 / decimate=0 / interlaced=0 / bluray_compat=0 / constrained_intra=0 / bframes=8 / b_pyramid=2 / b_adapt=2 / b_bias=0 / direct=3 / weightb=1 / open_gop=0 / weightp=2 / keyint=250 / keyint_min=24 / scenecut=40 / intra_refresh=0 / rc_lookahead=250 / rc=crf / mbtree=0 / crf=16.8 / qcomp=0.60 / qpmin=0 / qpmax=69 / qpstep=4 / vbv_maxrate=62500 / vbv_bufsize=78125 / crf_max=0.0 / nal_hrd=none / filler=0 / ip_ratio=1.30 / pb_ratio=1.20 / aq=3:0.80
Language : English
Default : Yes
Forced : No
Color range : Limited
Color primaries : BT.709
Matrix coefficients : BT.709
Audio #1
ID : 2
Format : E-AC-3
Format/Info : Enhanced AC-3
Commercial name : Dolby Digital Plus
Codec ID : A_EAC3
Duration : 1 h 54 min
Bit rate mode : Constant
Bit rate : 640 kb/s
Channel(s) : 6 channels
Channel layout : L R C LFE Ls Rs
Sampling rate : 48.0 kHz
Frame rate : 31.250 FPS (1536 SPF)
Compression mode : Lossy
Stream size : 522 MiB (6%)
Title : Dub [Netflix]
Language : Russian
Service kind : Complete Main
Default : Yes
Forced : Yes
Audio #2
ID : 3
Format : AC-3
Format/Info : Audio Coding 3
Commercial name : Dolby Digital
Codec ID : A_AC3
Duration : 1 h 54 min
Bit rate mode : Constant
Bit rate : 640 kb/s
Channel(s) : 6 channels
Channel layout : L R C LFE Ls Rs
Sampling rate : 48.0 kHz
Frame rate : 31.250 FPS (1536 SPF)
Compression mode : Lossy
Stream size : 522 MiB (6%)
Title : Dub [Netflix]
Language : Russian
Service kind : Complete Main
Default : No
Forced : No
Audio #3
ID : 4
Format : AC-3
Format/Info : Audio Coding 3
Commercial name : Dolby Digital
Codec ID : A_AC3
Duration : 1 h 49 min
Bit rate mode : Constant
Bit rate : 640 kb/s
Channel(s) : 6 channels
Channel layout : L R C LFE Ls Rs
Sampling rate : 48.0 kHz
Frame rate : 31.250 FPS (1536 SPF)
Compression mode : Lossy
Stream size : 502 MiB (6%)
Title : Original
Language : English
Service kind : Complete Main
Default : No
Forced : No
Text #1
ID : 5
Format : UTF-8
Codec ID : S_TEXT/UTF8
Codec ID/Info : UTF-8 Plain Text
Duration : 1 h 48 min
Bit rate : 5 b/s
Count of elements : 129
Stream size : 4.05 KiB (0%)
Title : Forced
Language : Russian
Default : Yes
Forced : Yes
Text #2
ID : 6
Format : UTF-8
Codec ID : S_TEXT/UTF8
Codec ID/Info : UTF-8 Plain Text
Duration : 1 h 48 min
Bit rate : 99 b/s
Count of elements : 1558
Stream size : 79.6 KiB (0%)
Title : Russian
Language : Russian
Default : No
Forced : No
Text #3
ID : 7
Format : UTF-8
Codec ID : S_TEXT/UTF8
Codec ID/Info : UTF-8 Plain Text
Duration : 24 min 10 s
Bit rate : 1 b/s
Count of elements : 9
Stream size : 248 Bytes (0%)
Title : English [Forced]
Language : English
Default : No
Forced : Yes
Text #4
ID : 8
Format : UTF-8
Codec ID : S_TEXT/UTF8
Codec ID/Info : UTF-8 Plain Text
Duration : 1 h 49 min
Bit rate : 113 b/s
Count of elements : 2179
Stream size : 90.8 KiB (0%)
Title : English
Language : English
Default : No
Forced : No
Menu
00:00:00.000 : Chapter 01
00:06:16.042 : Chapter 02
00:14:18.483 : Chapter 03
00:18:56.385 : Chapter 04
00:24:53.575 : Chapter 05
00:31:55.831 : Chapter 06
00:36:30.271 : Chapter 07
00:45:45.117 : Chapter 08
00:49:55.492 : Chapter 09
00:54:17.004 : Chapter 10
01:02:29.829 : Chapter 11
01:08:49.333 : Chapter 12
01:15:51.505 : Chapter 13
01:25:21.032 : Chapter 14
01:30:32.051 : Chapter 15
01:38:45.294 : Chapter 16
[ivtracker.org].t29421.torrent 
 ЗОЛОТАЯ РАЗДАЧА! СКАЧАННОЕ НЕ ЗАСЧИТЫВАЕТСЯ! 
Торрент: Зарегистрирован [ 2021-12-07 05:10 ] · EB4EFF52FBA047533573139392E02FA5F9DB8907

Скачать .torrent

Скачать

179 KB

Статус: проверено · admin · 2 года 7 месяцев назад
Скачан: 0 раз
Размер: 8.9 GB
Поделиться:
 
Похожие темы
[Профиль] [ЛС]
Вернуться к началу
Показать сообщения:    
Ответить на тему

Текущее время: 13-Июл 03:24

Часовой пояс: UTC + 3



Вы не можете начинать темы
Вы не можете отвечать на сообщения
Вы не можете редактировать свои сообщения
Вы не можете удалять свои сообщения
Вы не можете голосовать в опросах
Вы не можете прикреплять файлы к сообщениям
Вы можете скачивать файлы