Отчаянные аферистки / Queenpins (2021) WEB-DL 1080p | P | HDRezka Studio

Reply to topic
DL-List and Torrent activity [Update пиров]
Size:  7.55 GB   |    Registered:  9 days   |    Completed:  0 times
Seeders:  37  [  0 KB/s  ]   Leechers:  13  [  0 KB/s  ]   Show peers in full details
 
   
 
 
Author Message

admin ®

Gender: Male

Longevity: 4 years

Posts: 13084

Post 12-Oct-2021 03:57

[Quote]

Информация о фильме
Название: Отчаянные аферистки
Оригинальное название: Queenpins
Год выхода: 2021
Жанр: Комедия, криминал
Режиссер: Арон Годет, Гита Пуллапилли
В ролях: Кристен Белл, Винс Вон, Кирби Хауэлл-Баптист, Пол Уолтер Хаузер, Биби Рекса, Дайо Окенийи, Джоэл МакХэйл, Ник Кассаветис, Майкл Масини, Эдуардо Франко, Лидия Порто, Грета Оглсби, Бен Сиделл, Роберт Рейчел мл., Джудит Дрэйк
О фильме:
Конни и ДжоДжо — лучшие подруги, которые погрязли в быту и домашней рутине. Но однажды они придумывают схему, как обменивать купоны магазинов на деньги, и ставят это на поток. Теперь у них есть всё — модная одежда, дорогие автомобили, частный самолет. И все было бы как в сказке, если бы не два копа, которые пытаются поймать отчаянных домохозяек и разоблачить их хитроумную аферу.

Страна: США
Студия: AGC Studios, Marquee Entertainment, Red Hour Films
Продолжительность: 01:50:25
Перевод: Профессиональный многоголосый | HDRezka Studio
Файл
Кодек: x.264
Качество: WEB-DL 1080p | Queenpins.2021.1080p.AMZN.WEB-DL.DDP5.1.x264-NOGRP
Видео: MPEG-4 AVC, 8701 Kбит/с, 1920x872, 24.000 кадр/с
Аудио #1: Русский (АС3, 6 ch, 448 Кбит/с, 48.0 KHz) Профессиональный (многоголосый, закадровый) HDRezka Studio
Аудио #2: Английский (E-АС3, 6 ch, 640 Кбит/с, 48.0 KHz)
Субтитры: Русские (Forced | HDRezka), английские
► Без Рекламы!

MediaInfo

Источник: Queenpins.2021.1080p.AMZN.WEB-DL.DDP5.1.x264-NOGRP
General
Unique ID : 240077615257481895894480968747465728290 (0xB49D444E5339FA42A5562311165A6122)
Complete name : Queenpins.2021.AMZN.WEB-DL.1080p.mkv
Format : Matroska
Format version : Version 4
File size : 7.55 GiB
Duration : 1 h 50 min
Overall bit rate : 9 792 kb/s
Encoded date : UTC 2021-10-06 07:20:50
Writing application : mkvmerge v7.1.0 ('Good Love') 64bit built on Jul 27 2014 13:06:55
Writing library : libebml v1.3.0 + libmatroska v1.4.1
Video
ID : 1
Format : AVC
Format/Info : Advanced Video Codec
Format profile : High@L4
Format settings : CABAC / 4 Ref Frames
Format settings, CABAC : Yes
Format settings, Reference fra : 4 frames
Codec ID : V_MPEG4/ISO/AVC
Duration : 1 h 50 min
Bit rate mode : Constant
Bit rate : 8 701 kb/s
Nominal bit rate : 10 000 kb/s
Width : 1 920 pixels
Height : 872 pixels
Display aspect ratio : 2.2:1
Frame rate mode : Constant
Frame rate : 24.000 FPS
Color space : YUV
Chroma subsampling : 4:2:0
Bit depth : 8 bits
Scan type : Progressive
Bits/(Pixel*Frame) : 0.217
Stream size : 6.71 GiB (89%)
Language : English
Default : Yes
Forced : No
Color range : Limited
Color primaries : BT.709
Transfer characteristics : BT.709
Matrix coefficients : BT.709
Audio #1
ID : 2
Format : AC-3
Format/Info : Audio Coding 3
Commercial name : Dolby Digital
Codec ID : A_AC3
Duration : 1 h 50 min
Bit rate mode : Constant
Bit rate : 448 kb/s
Channel(s) : 6 channels
Channel layout : L R C LFE Ls Rs
Sampling rate : 48.0 kHz
Frame rate : 31.250 FPS (1536 SPF)
Compression mode : Lossy
Stream size : 354 MiB (5%)
Title : MVO | HDRezka Studio
Language : Russian
Service kind : Complete Main
Default : Yes
Forced : No
Audio #2
ID : 3
Format : E-AC-3
Format/Info : Enhanced AC-3
Commercial name : Dolby Digital Plus
Codec ID : A_EAC3
Duration : 1 h 50 min
Bit rate mode : Constant
Bit rate : 640 kb/s
Channel(s) : 6 channels
Channel layout : L R C LFE Ls Rs
Sampling rate : 48.0 kHz
Frame rate : 31.250 FPS (1536 SPF)
Compression mode : Lossy
Stream size : 505 MiB (7%)
Language : English
Service kind : Complete Main
Default : No
Forced : No
Text #1
ID : 4
Format : UTF-8
Codec ID : S_TEXT/UTF8
Codec ID/Info : UTF-8 Plain Text
Duration : 1 h 43 min
Bit rate : 6 b/s
Count of elements : 93
Stream size : 4.56 KiB (0%)
Title : Forced | HDRezka
Language : Russian
Default : Yes
Forced : No
Text #2
ID : 5
Format : UTF-8
Codec ID : S_TEXT/UTF8
Codec ID/Info : UTF-8 Plain Text
Duration : 1 h 43 min
Bit rate : 95 b/s
Count of elements : 1847
Stream size : 72.3 KiB (0%)
Language : English
Default : No
Forced : No

Скриншоты

 GOLD TORRENT! DOWNLOAD TRAFFIC DOES NOT CONSIDER! 
Torrent: Registered [ 2021-10-12 03:57 ]   · 966AA8D6033BCE00A49F0A3B02D43FAAB977BFBA

Download .torrent

Download

20 KB

Status: checked
Completed: 0 times
Size: 7.55 GB
Поделиться:
terms.php
[Profile] [PM]
Display posts:    
Reply to topic

Current time is: 22-Oct 02:45

All times are UTC + 3



You cannot post new topics in this forum
You cannot reply to topics in this forum
You cannot edit your posts in this forum
You cannot delete your posts in this forum
You cannot vote in polls in this forum
You cannot attach files in this forum
You can download files in this forum