Между мирами / Between Worlds (Мария Пулера / Maria Pulera) [2018, Испания, боевик, триллер, детектив, HDRip] MVO (iTunes)

Reply to topic
DL-List and Torrent activity
Size:  747 MB   |    Registered:  5 days   |    Completed:  0 times

Seeder not seen: Never

 
   
 
 
Author Message

admin ®

Gender: Male

Longevity: 3 years 2 months

Posts: 10109

Post 22-Nov-2020 05:39

[Quote]

Между мирами / Between Worlds
Страна: Испания
Жанр: боевик, триллер, детектив
Год выпуска: 2018
Продолжительность: 01:30:17
Перевод: Профессиональный (многоголосый закадровый) iTunes
Субтитры: нет
Режиссер: Мария Пулера / Maria Pulera
В ролях: Николас Кейдж
Пенелопа Митчелл
Франка Потенте
Лидия Хёрст
Гарретт Клэйтон
Бриттани Шоу
Дэвид Ли Смит
Хоппер Пенн
Пэрис Браво
Том Уильямс
Описание: В жизни Джо произошла трагедия — он потерял жену и дочь. После встречи с Джулией, которая умеет вызывать умерших, мужчина обретает надежду, однако в его жизни начинает происходить нечто странное. Джо сталкивается с необъяснимыми явлениями и со злом, никак не желающим уходить.
Доп. информация: https://www.kinopoisk.ru/film/mezhdu-mirami-2018-1053512/
Сэмпл: http://sendfile.su/1583594
Качество видео: HDRip найдено в сети
Формат видео: AVI
Видео: 688x368 (1.87:1), 23.976 fps, XviD build 73 ~1018 kbps avg, 0.17 bit/pixel
Аудио: 48 kHz, MPEG Layer 3, 2 ch, ~128.00 kbps avg

MediaInfo

General
Complete name : T:\Between Worlds 2018 HDRip 746 MB.avi
Format : AVI
Format/Info : Audio Video Interleave
File size : 747 MiB
Duration : 1h 30mn
Overall bit rate : 1 156 Kbps
Writing application : VirtualDubMod 1.5.10.3 (build 2550/release)
Writing library : VirtualDubMod build 2550/release
Video
ID : 0
Format : MPEG-4 Visual
Format profile : Advanced Simple@L5
Format settings, BVOP : 1
Format settings, QPel : No
Format settings, GMC : No warppoints
Format settings, Matrix : Custom
Codec ID : XVID
Codec ID/Hint : XviD
Duration : 1h 30mn
Bit rate : 1 019 Kbps
Width : 688 pixels
Height : 368 pixels
Display aspect ratio : 1.85:1
Frame rate : 23.976 fps
Color space : YUV
Chroma subsampling : 4:2:0
Bit depth : 8 bits
Scan type : Progressive
Compression mode : Lossy
Bits/(Pixel*Frame) : 0.168
Stream size : 658 MiB (88%)
Writing library : XviD 73
Audio
ID : 1
Format : MPEG Audio
Format version : Version 1
Format profile : Layer 3
Codec ID : 55
Codec ID/Hint : MP3
Duration : 1h 30mn
Bit rate mode : Constant
Bit rate : 128 Kbps
Channel(s) : 2 channels
Sampling rate : 48.0 KHz
Compression mode : Lossy
Stream size : 82.7 MiB (11%)
Alignment : Aligned on interleaves
Interleave, duration : 42 ms (1.00 video frame)
Interleave, preload duratio : 504 ms
Writing library : LAMELAME_MAJOR_VERSI

Скриншот c названием фильма

Скриншоты

 GOLD TORRENT! DOWNLOAD TRAFFIC DOES NOT CONSIDER! 
Torrent: Registered [ 2020-11-22 05:39 ]   · C6C079C3F4C44DB035EA5BDBBB037A9FD34E1B02

Download .torrent

Download

15 KB

Status: T temporary
Completed: 0 times
Size: 747 MB
Поделиться:
terms.php
[Profile] [PM]
Display posts:    
Reply to topic

Current time is: 27-Nov 08:14

All times are UTC + 3



You cannot post new topics in this forum
You cannot reply to topics in this forum
You cannot edit your posts in this forum
You cannot delete your posts in this forum
You cannot vote in polls in this forum
You cannot attach files in this forum
You can download files in this forum