Потерянная пуля / Balle perdue (Гийом Пьерре / Guillaume Pierret) [2020, Франция, боевик, триллер, криминал, WEB-DLRip-AVC] MVO (MUZOBOZ) + Original Fra + Sub Rus, Eng, Fra

Reply to topic
DL-List and Torrent activity
Size:  1.4 GB   |    Registered:  2 months 20 days   |    Completed:  0 times

Seeder not seen: Never

 
   
 
 
Author Message

admin ®

Gender: Male

Longevity: 2 years 11 months

Posts: 10016

Post 29-Jun-2020 01:26

[Quote]

-Потерянная пуля / Balle perdue-- -Страна: Франция
Жанр: боевик, триллер, криминал
Год выпуска: 2020
Продолжительность: 01:33:06-Перевод: Любительский (многоголосый закадровый) MUZOBOZ
Субтитры: русские, английские, французские
Оригинальная аудиодорожка: французская-Режиссер: Гийом Пьерре / Guillaume Pierret-В ролях: Альбан Ленуар, Николя Дювошель, Рамзи Бедиа, Стефи Сельма, Род Парадо, Себастьян Лаланн, Патрик Медиони, Александр Филип, Стивен Скардиккьо, Дэмиен ЛеКонте, Тибо Эврар, Энни Серра, Паскаль Арбийо, Роберт Хоспьян-Описание: Одаренного механика обвиняют в убийстве, которого он не совершал. Единственным доказательством его невиновности является пуля с места преступления, застрявшая в пропавшей машине.- - -Качество видео: WEB-DLRip-AVC / WEB-DL 1080p
Формат видео: MKV-Видео: MPEG-4 AVC, 984x410 (2.40:1), 25.000 fps, ~1531 kbps avg, 0.152 bit/pixel
Аудио 1: 48 kHz, AC3 Dolby Digital, 2/0 (L,R) ch, ~192 kbps avg MUZOBOZ
Аудио 2: 48 kHz, AC3 Dolby Digital, 3/2 (L,C,R,l,r) + LFE ch, ~384 kbps avg Original-

MediaInfo


Complete name               : D:\Раздача\Потерянная пуля (2020) WEB-DLRip-AVC_ivanes.mkv
Format                      : Matroska
Format version              : Version 2
File size                   : 1.40 GiB
Duration                    : 1 h 33 min
Overall bit rate            : 2 150 kb/s
Movie name                  : Потерянная пуля (2020) WEB-DLRip-AVC_ivanes
Encoded date                : UTC 2020-06-21 19:01:20
Writing application         : mkvmerge v4.4.0 ('Die Wiederkehr') сборка от Jan  3 2011 21:40:45
Writing library             : libebml v1.0.0 + libmatroska v1.0.0
Cover                       : Yes
Attachments                 : cover.jpg
Video
ID                          : 1
Format                      : AVC
Format/Info                 : Advanced Video Codec
Format profile              : High@L4.1
Format settings             : CABAC / 11 Ref Frames
Format settings, CABAC      : Yes
Format settings, Reference  : 11 frames
Codec ID                    : V_MPEG4/ISO/AVC
Duration                    : 1 h 33 min
Bit rate                    : 1 531 kb/s
Width                       : 984 pixels
Height                      : 410 pixels
Display aspect ratio        : 2.40:1
Frame rate mode             : Constant
Frame rate                  : 25.000 FPS
Color space                 : YUV
Chroma subsampling          : 4:2:0
Bit depth                   : 8 bits
Scan type                   : Progressive
Bits/(Pixel*Frame)          : 0.152
Stream size                 : 1 020 MiB (71%)
Title                       : Rip by ivanes
Writing library             : x264 core 160 r3000 33f9e14
Encoding settings           : cabac=1 / ref=11 / deblock=1:-3:-3 / analyse=0x3:0x113 / me=umh / subme=10 / psy=1 / psy_rd=1.00:0.00 / mixed_ref=1 / me_range=32 / chroma_me=1 / trellis=2 / 8x8dct=1 / cqm=0 / deadzone=21,11 / fast_pskip=0 / chroma_qp_offset=-2 / threads=12 / lookahead_threads=3 / sliced_threads=0 / nr=0 / decimate=1 / interlaced=0 / bluray_compat=0 / constrained_intra=0 / bframes=13 / b_pyramid=2 / b_adapt=2 / b_bias=0 / direct=1 / weightb=1 / open_gop=0 / weightp=2 / keyint=250 / keyint_min=25 / scenecut=40 / intra_refresh=0 / rc_lookahead=60 / rc=crf / mbtree=1 / crf=18.7 / qcomp=0.65 / qpmin=0 / qpmax=69 / qpstep=4 / vbv_maxrate=50000 / vbv_bufsize=62500 / crf_max=0.0 / nal_hrd=none / filler=0 / ip_ratio=1.40 / aq=1:1.00
Default                     : Yes
Forced                      : No
Statistics Tags Issue       : mkvmerge v29.0.0 ('Like It Or Not') 64-bit 2020-06-21 19:00:43 / mkvmerge v4.4.0 ('Die Wiederkehr') сборка от Jan  3 2011 21:40:45 2020-06-21 19:01:20
FromStats_BitRate           : 1571551
FromStats_Duration          : 01:33:06.320000000
FromStats_FrameCount        : 139658
FromStats_StreamSize        : 1097398490
Audio #1
ID                          : 2
Format                      : AC-3
Format/Info                 : Audio Coding 3
Commercial name             : Dolby Digital
Codec ID                    : A_AC3
Duration                    : 1 h 33 min
Bit rate mode               : Constant
Bit rate                    : 192 kb/s
Channel(s)                  : 2 channels
Channel layout              : L R
Sampling rate               : 48.0 kHz
Frame rate                  : 31.250 FPS (1536 SPF)
Compression mode            : Lossy
Stream size                 : 128 MiB (9%)
Title                       : MUZOBOZ
Language                    : Russian
Service kind                : Complete Main
Default                     : Yes
Forced                      : No
Audio #2
ID                          : 3
Format                      : AC-3
Format/Info                 : Audio Coding 3
Commercial name             : Dolby Digital
Codec ID                    : A_AC3
Duration                    : 1 h 33 min
Bit rate mode               : Constant
Bit rate                    : 384 kb/s
Channel(s)                  : 6 channels
Channel layout              : L R C LFE Ls Rs
Sampling rate               : 48.0 kHz
Frame rate                  : 31.250 FPS (1536 SPF)
Compression mode            : Lossy
Stream size                 : 256 MiB (18%)
Title                       : Original
Language                    : French
Service kind                : Complete Main
Default                     : No
Forced                      : No
Text #1
ID                          : 4
Format                      : UTF-8
Codec ID                    : S_TEXT/UTF8
Codec ID/Info               : UTF-8 Plain Text
Title                       : Full
Language                    : Russian
Default                     : No
Forced                      : No
Text #2
ID                          : 5
Format                      : UTF-8
Codec ID                    : S_TEXT/UTF8
Codec ID/Info               : UTF-8 Plain Text
Title                       : Full
Language                    : English
Default                     : No
Forced                      : No
Text #3
ID                          : 6
Format                      : UTF-8
Codec ID                    : S_TEXT/UTF8
Codec ID/Info               : UTF-8 Plain Text
Title                       : Full
Language                    : French
Default                     : No
Forced                      : No

Скриншоты

 GOLD TORRENT! DOWNLOAD TRAFFIC DOES NOT CONSIDER! 
Torrent: Registered [ 2020-06-29 01:26 ]   · 7D12773708EE592E63079EE4E2C6ACB80FA33583

Download .torrent

Download

14 KB

Status: checked
Completed: 0 times
Size: 1.4 GB
Поделиться:
terms.php
[Profile] [PM]
Display posts:    
Reply to topic

Current time is: 19-Sep 21:44

All times are UTC + 3



You cannot post new topics in this forum
You cannot reply to topics in this forum
You cannot edit your posts in this forum
You cannot delete your posts in this forum
You cannot vote in polls in this forum
You cannot attach files in this forum
You can download files in this forum