Заложница 3 / Taken 3 (Оливье Мегатон / Olivier Megaton) [2014, Франция, Боевик, триллер, BDRip-AVC] Dub + Sub Rus, Eng + Original Eng

Reply to topic
DL-List and Torrent activity
Size:  4.19 GB   |    Registered:  2 years 11 months   |    Completed:  0 times

Seeder not seen: Never

 
   
 
 
Author Message

admin ®

Gender: Male

Longevity: 2 years 11 months

Posts: 10017

Post 11-Oct-2017 02:15

[Quote]

Заложница 3Taken 3«Это конец»Театральная версия / Theatrical Cut

Страна: Франция
Жанр: Боевик, триллер
Год выпуска: 2014
Продолжительность: 01:48:57
Перевод: Профессиональный (дублированный) [BD EUR]
Субтитры: русские,английские,+ форсированные на надписи
Оригинальная аудиодорожка: английский
Режиссер: Оливье Мегатон / Olivier Megaton
В ролях: Лиам Нисон, Мэгги Грэйс, Форест Уитакер, Сэм Спруэлл, Фамке Янссен, Дюгрей Скотт, Дон Харви, Дилан Бруно, Лиленд Орсер, Дэвид Уоршофски
Описание: Жизнь бывшего правительственного агента Брайана Миллса рушится, когда его обвиняют в убийстве, которого он не совершал. Преследуемый опытным инспектором полиции, Миллс пытается отследить настоящего убийцу…
Доп. информация:
Релиз группы:
Сохранены оригинальные главы как на Bluray
Качество видео: BDRip-AVC |Заложница 3 / Taken 3 (2014) [Theatrical Cut] 1080p BD-Remux| HD club
Формат видео: MKV
Видео: 1154x484 (2,40:1), 23.976 fps, 4492 Кbps, 0.336 bit/pixe
Аудио: 48 kHz, AC3 Dolby Digital, 3/2 (L,C,R,l,r) + LFE ch, 448.00 kbps | DUB
Аудио 2: 48 kHz, AC3 Dolby Digital, 3/2 (L,C,R,l,r) + LFE ch, 448.00 kbps | ENG
Формат субтитров: softsub (SRT)
Доп. информация о субтитрах: отключаемые

MediaInfo

General
Unique ID : 231255907137800901848592408742496288160 (0xADFA4483E1003C25AE589FA5DEB3BDA0)
Complete name : E:\Мои рипы\Заложница 3\Taken 3 by_IVAN@190282.mkv
Format : Matroska
Format version : Version 4 / Version 2
File size : 4.19 GiB
Duration : 1h 48mn
Overall bit rate : 5 507 Kbps
Movie name : Taken 3 by_IVAN@190282
Encoded date : UTC 2016-03-07 19:22:50
Writing application : mkvmerge v8.8.0 ('Wind at my back') 64bit
Writing library : libebml v1.3.3 + libmatroska v1.4.4
Attachements : cover.jpg
DURATION : 01:47:58.609000000
NUMBER_OF_FRAMES : 1629
NUMBER_OF_BYTES : 41675
_STATISTICS_WRITING_APP : mkvmerge v8.8.0 ('Wind at my back') 64bit
_STATISTICS_WRITING_DATE_UT : 2016-03-07 19:22:50
_STATISTICS_TAGS : BPS DURATION NUMBER_OF_FRAMES NUMBER_OF_BYTES
Video
ID : 1
Format : AVC
Format/Info : Advanced Video Codec
Format profile : High@L4.1
Format settings, CABAC : Yes
Format settings, ReFrames : 14 frames
Codec ID : V_MPEG4/ISO/AVC
Duration : 1h 48mn
Bit rate : 4 502 Kbps
Width : 1 154 pixels
Height : 484 pixels
Display aspect ratio : 2.40:1
Frame rate mode : Constant
Frame rate : 23.976 fps
Color space : YUV
Chroma subsampling : 4:2:0
Bit depth : 8 bits
Scan type : Progressive
Bits/(Pixel*Frame) : 0.336
Stream size : 3.43 GiB (82%)
Title : Taken 3 by_IVAN@190282
Writing library : x264 core 146 r2538kMod 121396c
Encoding settings : cabac=1 / ref=14 / deblock=1:-3:-3 / analyse=0x3:0x113 / me=umh / subme=11 / psy=1 / fade_compensate=0.00 / psy_rd=1.00:0.15 / mixed_ref=1 / me_range=48 / chroma_me=1 / trellis=2 / 8x8dct=1 / cqm=0 / deadzone=21,11 / fast_pskip=0 / chroma_qp_offset=0 / threads=6 / lookahead_threads=6 / sliced_threads=0 / slices=10 / nr=0 / decimate=1 / interlaced=0 / bluray_compat=0 / constrained_intra=0 / fgo=0 / bframes=16 / b_pyramid=2 / b_adapt=2 / b_bias=0 / direct=3 / weightb=1 / open_gop=1 / weightp=2 / keyint=240 / keyint_min=23 / scenecut=40 / intra_refresh=0 / rc_lookahead=40 / rc=crf / mbtree=0 / crf=18.8000 / qcomp=0.60 / qpmin=0 / qpmax=69 / qpstep=4 / vbv_maxrate=50000 / vbv_bufsize=62500 / crf_max=0.0 / nal_hrd=none / filler=0 / ip_ratio=1.40 / pb_ratio=1.30 / aq=1:1.00
Default : Yes
Forced : No
Color range : Limited
Color primaries : BT.709
Transfer characteristics : BT.709
Matrix coefficients : BT.709
Audio #1
ID : 2
Format : AC-3
Format/Info : Audio Coding 3
Mode extension : CM (complete main)
Format settings, Endianness : Big
Codec ID : A_AC3
Duration : 1h 48mn
Bit rate mode : Constant
Bit rate : 448 Kbps
Channel(s) : 6 channels
Channel positions : Front: L C R, Side: L R, LFE
Sampling rate : 48.0 KHz
Compression mode : Lossy
Stream size : 349 MiB (8%)
Title : Dub
Default : Yes
Forced : No
Audio #2
ID : 3
Format : AC-3
Format/Info : Audio Coding 3
Mode extension : CM (complete main)
Format settings, Endianness : Big
Codec ID : A_AC3
Duration : 1h 48mn
Bit rate mode : Constant
Bit rate : 448 Kbps
Channel(s) : 6 channels
Channel positions : Front: L C R, Side: L R, LFE
Sampling rate : 48.0 KHz
Compression mode : Lossy
Stream size : 349 MiB (8%)
Title : Eng
Default : No
Forced : No
Text #1
ID : 4
Format : UTF-8
Codec ID : S_TEXT/UTF8
Codec ID/Info : UTF-8 Plain Text
Title : rus forsed
Language : Russian
Default : Yes
Forced : No
Text #2
ID : 5
Format : UTF-8
Codec ID : S_TEXT/UTF8
Codec ID/Info : UTF-8 Plain Text
Title : Rus
Language : Russian
Default : No
Forced : No
Text #3
ID : 6
Format : UTF-8
Codec ID : S_TEXT/UTF8
Codec ID/Info : UTF-8 Plain Text
Title : eng forsed
Language : English
Default : No
Forced : No
Text #4
ID : 7
Format : UTF-8
Codec ID : S_TEXT/UTF8
Codec ID/Info : UTF-8 Plain Text
Title : Eng
Language : English
Default : No
Forced : No
Menu
00:00:00.000 : en:Chapter 1
00:03:47.393 : en:Chapter 2
00:09:14.053 : en:Chapter 3
00:12:20.823 : en:Chapter 4
00:14:45.342 : en:Chapter 5
00:17:17.661 : en:Chapter 6
00:22:11.121 : en:Chapter 7
00:24:41.563 : en:Chapter 8
00:26:27.168 : en:Chapter 9
00:28:54.566 : en:Chapter 10
00:31:10.660 : en:Chapter 11
00:34:09.797 : en:Chapter 12
00:36:27.309 : en:Chapter 13
00:41:31.864 : en:Chapter 14
00:44:49.061 : en:Chapter 15
00:48:10.637 : en:Chapter 16
00:52:43.243 : en:Chapter 17
00:56:45.193 : en:Chapter 18
01:00:27.540 : en:Chapter 19
01:03:34.852 : en:Chapter 20
01:04:51.762 : en:Chapter 21
01:07:06.355 : en:Chapter 22
01:11:02.591 : en:Chapter 23
01:14:42.102 : en:Chapter 24
01:16:38.635 : en:Chapter 25
01:19:43.611 : en:Chapter 26
01:23:55.655 : en:Chapter 27
01:27:33.330 : en:Chapter 28
01:31:16.428 : en:Chapter 29
01:34:20.445 : en:Chapter 30
01:40:30.649 : en:Chapter 31
01:43:26.741 : en:Chapter 32
01:48:56.904 : en:Chapter 33

x264 log

VIDEO ENCODING
x264 [info]: frame I:1332 Avg QP:17.84 size: 81998
x264 [info]: frame P:40867 Avg QP:19.37 size: 38928
x264 [info]: frame B:114558 Avg QP:21.74 size: 18027
x264 [info]: consecutive B-frames: 5.0% 5.9% 14.9% 18.9% 16.9% 27.4% 5.4% 1.2% 1.4% 1.4% 0.7% 0.2% 0.3% 0.2% 0.1% 0.0% 0.1%
x264 [info]: kb/s:4607.15
x264 [total]: encoded 156757 frames, 1.81 fps, 4507.15 kb/s, duration 24:03:05.58

Знаете ли Вы что

• Все сцены драк Лиам Нисон исполнил самостоятельно.
• В фильме «Заложница» (2007) Брайан Миллс говорит похитителям по телефону, что именно он будет делать, и с чем они столкнулись, на что они отвечают: «Удачи». А в фильме «Заложница 3» (2014) наоборот – Франк Доцлер говорит Брайану, что именно он будет делать, и с чем столкнулся Брайан, на что Брайан отвечает: «Удачи».
• В фильме на 33-й минуте в полицейском профайле Ким указан рост 6`4» (193 см), на самом деле рост актрисы Мэгги Грэйс составляет всего 5`9» (175 см).

Ошибки в фильме

• Когда Брайан встречается с дочерью в туалете, нам показывают кадр сверху. Мы видим стандартную узкую кабинку, 14 плиток кафеля в ширину. Нет никаких окон. В следующих кадрах, когда показывают разговор отца и дочери, кабинка становится очень широкой, и в стене появляется окно.
• В фильме на 33:19 минуте указана модель машины Ленор AUDI A8 Spyder — на самом деле модель машины — AUDI R8 Spyder.
• Porsche врезается в переднее шасси самолета, однако в последующих сценах на машине не видно никаких повреждений.
• Когда Миллс пытает Стюарта Сент-Джона, он обвиняет Миллса в том, что тот спал с его женой. В оригинальной версии слышно, что он в этом моменте произносит слово «screwing», но по его губам видно, что на самом деле он говорит «fucking».
• В сцене, когда Брайан пытает Стюарта, погружая его под воду, следы от воды на футболке Стюарта меняются при смене кадра.
• В начале фильма, когда Брайана преследует полиция, ему удается уйти от погони, спустившись под грузовик, а затем в канализацию. При этом он полностью погружается под воду. Однако, когда он вылезает из канализации, его рубашка мокрая только до воротника.
• Когда Миллс угоняет полицейскую машину, она получает повреждения спереди и сзади. Но позже можно заметить, что эти повреждения исчезают.
• Пилоты реактивного самолета запрашивают взлет с полосы 2. В следующем же кадре показывают вылет с полосы 5L.
• Брайан звонит Ким после того, как ему удается сбежать от полиции, и когда он вешает трубку, слышен гудок на линии Ким. У Ким iPhone, который не издает такого гудка при завершении звонка.
• В сцене, когда Брайан заходит в лифт небоскрёба, он берёт дефибриллятор и вырубает им двух охранников, направив на каждого отдельный электрод. Дефибриллятор не сработает на человеке если на нём лишь один электрод, а не два.
• В сцене, когда Стюарт садится в машину, он садится в Mercedes-Benz S500 W221, в следующем же кадре видно, что он едет на Mercedes-Benz S500, но кузов уже W222.
• Когда Меланков разговаривает по телефону в своем доме, он держит телефон перевернутым.
• В финальной сцене у разбившегося самолёта (1:34:12), когда Дюгрей Скотт, держа за волосы, вытаскивает дочь главного героя, видно как он держит дуло пистолета у её головы — то над головой, то на уровне её уха, в следующем же кадре, когда дочь вырывается ударив его локтём, мы видим, что дуло пистолета находится чуть впереди дочери и ниже подбородка.

Скриншот c названием фильма

Скриншоты

Убедительная просьба пожалуйста кто скачал не бросайте раздачу!!!
 GOLD TORRENT! DOWNLOAD TRAFFIC DOES NOT CONSIDER! 
Torrent: Registered [ 2017-10-11 02:15 ]   · 0004D42CCDE326AB97C639A0B98FD49BBCF23791

Download .torrent

Download

11 KB

Status: checked
Completed: 0 times
Size: 4.19 GB
Поделиться:
terms.php
[Profile] [PM]
Display posts:    
Reply to topic

Current time is: 24-Sep 00:59

All times are UTC + 3



You cannot post new topics in this forum
You cannot reply to topics in this forum
You cannot edit your posts in this forum
You cannot delete your posts in this forum
You cannot vote in polls in this forum
You cannot attach files in this forum
You can download files in this forum