Красотки в бегах / Hot Pursuit (Энн Флетчер / Anne Fletcher) [2015, США, Комедия, BDRip-AVC] Dub + Sub Rus, Eng + Original Eng

Reply to topic
DL-List and Torrent activity
Size:  2.69 GB   |    Registered:  3 years   |    Completed:  0 times

Seeder not seen: Never

 
   
 
 
Author Message

admin ®

Gender: Male

Longevity: 3 years 1 month

Posts: 10044

Post 11-Oct-2017 01:53

[Quote]

Красотки в бегахHot Pursuit«Вооружены и типа опасны»

Страна: США
Жанр: Комедия
Год выпуска: 2015
Продолжительность: 01:27:31
Перевод: Профессиональный (дублированный) BDCEE
Субтитры: русские,английские
Оригинальная аудиодорожка: английский
Режиссер: Энн Флетчер / Anne Fletcher
В ролях: Риз Уизерспун, София Вергара, Мэттью Дель Негро, Майкл Мосли, Роберт Казински, Ричард Т. Джонс, Бенни Нивз, Майкл Рэй Эскамиллья, Хоакин Косио, Джон Кэрролл Линч
Описание: Сверхдобросовестный офицер полиции Купер гордится своим назначением на, казалось бы, простое задание — сопроводить жену мафиози, Даниэллу, через весь Техас в Даллас, где она и ее муж должны дать показания против крупного наркобарона. Однако при встрече с порывистой миссис Рива — колумбийской красоткой с пышными формами, чье упрямство столь же выразительно, как и ее акцент, — ей становится ясно, что поездка будет не простой.
И прежде чем они успевают договориться о том, сколько туфель на шпильках сможет взять с собой очаровашка Даниэлла, полицейские и мистер Рива попадают под обстрел, превращая жену последнего во вдову, а предполагаемую «легкую прогулку» из Сан-Антонио в Даллас — в прятки на выживание наперегонки с пулями!
Доп. информация:
Релиз группы:
Сохранены оригинальные главы как на Bluray
Качество видео: BDRip-AVC | Красотки в бегах / Hot Pursuit (2015) 1080p BD-Remux|| HD club
Формат видео: MKV
Видео: 1152x480 (2:40:1), 23,976 fps, 3410 Кbps, 0.257 bit/pixe
Аудио: 48 kHz, AC3 Dolby Digital, 3/2 (L,C,R,l,r) + LFE ch, ~448.00 kbps avg DUB
Аудио 2: 48 kHz, AC3 Dolby Digital, 3/2 (L,C,R,l,r) + LFE ch, ~448.00 kbps avg ENG
Формат субтитров: softsub (SRT)
Доп. информация о субтитрах: отключаемые

MediaInfo

General
Unique ID : 243439279576453243064187939758775640359 (0xB724B3273F9E5A67A114E01CD0DEA127)
Complete name : E:\Мои рипы\Красотки в бегах\Hot Pursuit by_IVAN@190282.mkv
Format : Matroska
Format version : Version 4 / Version 2
File size : 2.69 GiB
Duration : 1h 27mn
Overall bit rate : 4 392 Kbps
Encoded date : UTC 2016-03-02 02:55:39
Writing application : mkvmerge v8.8.0 ('Wind at my back') 64bit
Writing library : libebml v1.3.3 + libmatroska v1.4.4
Attachements : cover.jpg
DURATION : 01:26:37.567000000
NUMBER_OF_FRAMES : 1656
NUMBER_OF_BYTES : 57594
_STATISTICS_WRITING_APP : mkvmerge v8.8.0 ('Wind at my back') 64bit
_STATISTICS_WRITING_DATE_UT : 2016-03-02 02:55:39
_STATISTICS_TAGS : BPS DURATION NUMBER_OF_FRAMES NUMBER_OF_BYTES
Video
ID : 1
Format : AVC
Format/Info : Advanced Video Codec
Format profile : High@L4.1
Format settings, CABAC : Yes
Format settings, ReFrames : 12 frames
Codec ID : V_MPEG4/ISO/AVC
Duration : 1h 27mn
Bit rate : 3 409 Kbps
Width : 1 152 pixels
Height : 480 pixels
Display aspect ratio : 2.40:1
Frame rate mode : Constant
Frame rate : 23.976 fps
Color space : YUV
Chroma subsampling : 4:2:0
Bit depth : 8 bits
Scan type : Progressive
Bits/(Pixel*Frame) : 0.257
Stream size : 2.08 GiB (78%)
Title : Hot Pursuit by_IVAN@190282
Writing library : x264 core 148 r2579kMod 73ae2d1
Encoding settings : cabac=1 / ref=12 / deblock=1:-3:-3 / analyse=0x3:0x133 / me=umh / subme=11 / psy=1 / fade_compensate=0.00 / psy_rd=1.00:0.05 / mixed_ref=1 / me_range=48 / chroma_me=1 / trellis=2 / 8x8dct=1 / cqm=0 / deadzone=21,11 / fast_pskip=0 / chroma_qp_offset=-3 / threads=6 / lookahead_threads=6 / sliced_threads=0 / nr=0 / decimate=1 / interlaced=0 / bluray_compat=0 / constrained_intra=0 / fgo=0 / bframes=16 / b_pyramid=2 / b_adapt=2 / b_bias=0 / direct=3 / weightb=1 / open_gop=0 / weightp=2 / keyint=240 / keyint_min=23 / scenecut=40 / intra_refresh=0 / rc_lookahead=60 / rc=crf / mbtree=0 / crf=17.0000 / qcomp=0.60 / qpmin=0 / qpmax=69 / qpstep=4 / vbv_maxrate=50000 / vbv_bufsize=62500 / crf_max=0.0 / nal_hrd=none / filler=0 / ip_ratio=1.40 / pb_ratio=1.30 / aq=2:1.10
Language : English
Default : Yes
Forced : No
Color range : Limited
Color primaries : BT.709
Transfer characteristics : BT.709
Matrix coefficients : BT.709
DURATION : 01:27:31.205000000
NUMBER_OF_FRAMES : 125903
NUMBER_OF_BYTES : 2293311342
_STATISTICS_WRITING_APP : mkvmerge v8.8.0 ('Wind at my back') 64bit
_STATISTICS_WRITING_DATE_UT : 2016-03-02 02:55:39
_STATISTICS_TAGS : BPS DURATION NUMBER_OF_FRAMES NUMBER_OF_BYTES
Audio #1
ID : 2
Format : AC-3
Format/Info : Audio Coding 3
Mode extension : CM (complete main)
Format settings, Endianness : Big
Codec ID : A_AC3
Duration : 1h 27mn
Bit rate mode : Constant
Bit rate : 448 Kbps
Channel(s) : 6 channels
Channel positions : Front: L C R, Side: L R, LFE
Sampling rate : 48.0 KHz
Compression mode : Lossy
Stream size : 280 MiB (10%)
Title : Dub BD CEE
Default : Yes
Forced : No
Audio #2
ID : 3
Format : AC-3
Format/Info : Audio Coding 3
Mode extension : CM (complete main)
Format settings, Endianness : Big
Codec ID : A_AC3
Duration : 1h 27mn
Bit rate mode : Constant
Bit rate : 448 Kbps
Channel(s) : 6 channels
Channel positions : Front: L C R, Side: L R, LFE
Sampling rate : 48.0 KHz
Compression mode : Lossy
Stream size : 280 MiB (10%)
Title : Eng
Language : English
Default : No
Forced : No
Text #1
ID : 4
Format : UTF-8
Codec ID : S_TEXT/UTF8
Codec ID/Info : UTF-8 Plain Text
Title : Rus forsed
Default : Yes
Forced : Yes
Text #2
ID : 5
Format : UTF-8
Codec ID : S_TEXT/UTF8
Codec ID/Info : UTF-8 Plain Text
Title : Rus
Default : No
Forced : No
Text #3
ID : 6
Format : UTF-8
Codec ID : S_TEXT/UTF8
Codec ID/Info : UTF-8 Plain Text
Title : Eng SDH
Language : English
Default : No
Forced : No
Menu
00:00:00.000 : en:(01)00:00:00:000
00:10:39.346 : en:(02)00:10:39:346
00:19:56.778 : en:(03)00:19:56:778
00:29:43.698 : en:(04)00:29:43:698
00:40:24.672 : en:(05)00:40:24:672
00:50:18.556 : en:(06)00:50:18:556
00:59:32.235 : en:(07)00:59:32:235
01:10:17.712 : en:(08)01:10:17:712
01:22:43.917 : en:(09)01:22:43:917

x264 log

VIDEO ENCODING
x264 [info]: frame I:1151 Avg QP:15.56 size: 89922 PSNR Mean Y:47.28 U:49.61 V:50.53 Avg:48.02 Global:47.43
x264 [info]: frame P:29360 Avg QP:17.09 size: 35818 PSNR Mean Y:45.88 U:48.53 V:49.69 Avg:46.69 Global:46.01
x264 [info]: frame B:95392 Avg QP:19.35 size: 11932 PSNR Mean Y:45.08 U:48.08 V:49.50 Avg:45.96 Global:45.24
x264 [info]: consecutive B-frames: 2.7% 4.1% 7.9% 29.1% 17.7% 28.4% 5.1% 3.4% 0.8% 0.3% 0.2% 0.1% 0.1% 0.0% 0.0% 0.0% 0.2%
x264 [total]: encoded 125903 frames, 2.51 fps, 3493.77 kb/s, duration 13:55:59.74

Знаете ли Вы что

• Первоначально фильм носил название «Не связывайтесь с Техасом» («Don`t Mess with Texas »).
• События фильма разворачиваются в Техасе, однако съемки фильма проходили в Новом Орлеане, штат Луизиана.

Ошибки в фильме

• Чтобы вызвать службу 911 не требуется разблокировка телефона. Однако в сцене в машине, когда Даниэлла теряет телефон, она пытается подобрать кодовую комбинацию для вызова 911.
• Большинство полицейских кодов произносимых в фильме на самом деле не соответствуют ситуации.
• Когда Даниэлла теряет свой iPhone, во время сцены автомобильной погони, видно, что это не настоящий телефон. Когда он попадает под колеса машины, и экран отлетает от корпуса, на нем все еще видно изображение начального экрана, хотя при таких повреждениях экран должен был стать черным.

Скриншот c названием фильма

Скриншоты

Убедительная просьба пожалуйста кто скачал не бросайте раздачу!!!
 GOLD TORRENT! DOWNLOAD TRAFFIC DOES NOT CONSIDER! 
Torrent: Registered [ 2017-10-11 01:53 ]   · E94D284F4B43F0F5FA4E2A3CDA6C3FD0887FBECD

Download .torrent

Download

14 KB

Status: checked
Completed: 0 times
Size: 2.69 GB
Поделиться:
terms.php
[Profile] [PM]
Display posts:    
Reply to topic

Current time is: 28-Oct 02:14

All times are UTC + 3



You cannot post new topics in this forum
You cannot reply to topics in this forum
You cannot edit your posts in this forum
You cannot delete your posts in this forum
You cannot vote in polls in this forum
You cannot attach files in this forum
You can download files in this forum