Морской Бой / Battleship (Питер Берг / Peter Berg) [2012, США, Фантастика,боевик,триллер, BDRip-AVC] Dub

Reply to topic
DL-List and Torrent activity
Size:  2.9 GB   |    Registered:  2 years 11 months   |    Completed:  0 times
Seeders:  1  [  0 KB/s  ]   Leechers:  4  [  0 KB/s  ]   Show peers in full details
 
   
 
 
Author Message

admin ®

Gender: Male

Longevity: 2 years 11 months

Posts: 10016

Post 09-Oct-2017 08:33

[Quote]

Морской БойBattleship«Битва за Землю начнётся на воде»
Страна: США
Жанр: Фантастика,боевик,триллер
Год выпуска: 2012
Продолжительность: 02:11:14
Перевод: Профессиональный (дублированный)
Субтитры: softsub (SRT)
Оригинальная аудиодорожка: нет
Режиссер: Питер Берг / Peter Berg
В ролях: Лиам Нисон, Тейлор Китч, Александр Скарсгард, Бруклин Декер, Рианна, Джесси Племонс, Джон Белл, Питер МакНикол, Таданобу Асано, Джошуа Пенс
Описание: Мы посылаем сигналы в космос и ждем ответа. Но уверены ли мы, что хотим его получить? Что если пришельцы потенциально опасны? В 2009 году на конференции в Вашингтоне астронавт Эдгар Митчелл, побывавший на Луне, сделал сенсационное заявление о существовании внеземной жизни. Теперь мы знаем, контакт не просто возможен, он неизбежен!
Доп. информация:
:
Качество видео: BDRip-AVC | Морской Бой / Battleship(2012) 1080p BD-Remux|
Формат видео: MKV
Видео: 1036x432 (2.40:1), 23.976 fps,x264@L4.1 ~2712 kbps avg, 0.253 bit/pixel
Аудио: 48 kHz, AC3 Dolby Digital, 3/2 (L,C,R,l,r) + LFE ch, ~448 kbps avg
Формат субтитров: softsub (SRT)
Доп. информация о субтитрах: отключаемые

MediaInfo

Уникальный идентификатор : 241922385430064148389247343767383051042 (0xB6008E7F6ADA1EA9BED3E24ECFBA0B22)
Полное имя : C:\Фильмы\Морской бой\Morskoj.boj.2012.BDRip-AVC.H264.AC3.by_IVAN@190282.mkv
Формат : Matroska
Версия формата : Version 2
Размер файла : 2,90 Гбайт
Продолжительность : 2 ч. 11 м.
Общий поток : 3162 Кбит/сек
Дата кодирования : UTC 2012-08-20 15:19:23
Программа кодирования : mkvmerge v5.7.0 ('The Whirlwind') built on Jul 8 2012 20:08:51
Библиотека кодирования : libebml v1.2.3 + libmatroska v1.3.0
Идентификатор : 1
Формат : AVC
Формат/Информация : Advanced Video Codec
Профиль формата : High@L4.1
Параметр CABAC формата : Да
Параметр ReFrames формата : 9 кадров
Идентификатор кодека : V_MPEG4/ISO/AVC
Продолжительность : 2 ч. 11 м.
Битрейт : 2712 Кбит/сек
Ширина : 1036 пикселей
Высота : 432 пикселя
Соотношение сторон : 2,40:1
Режим частоты кадров : Постоянный
Частота кадров : 23,976 кадра/сек
Цветовое пространство : YUV
Субдискретизация насыщенности : 4:2:0
Битовая глубина : 8 бит
Тип развёртки : Прогрессивная
Бит/(Пиксели*Кадры) : 0.253
Размер потока : 2,43 Гбайт (84%)
Заголовок : Морской бой / Battleship (2012) BDRip-AVC
Библиотека кодирования : x264 core 120 r2146 bcd41db
Настройки программы : cabac=1 / ref=9 / deblock=1:-3:-3 / analyse=0x3:0x113 / me=umh / subme=11 / psy=1 / psy_rd=1.05:0.00 / mixed_ref=1 / me_range=64 / chroma_me=1 / trellis=2 / 8x8dct=1 / cqm=0 / deadzone=21,11 / fast_pskip=1 / chroma_qp_offset=-2 / threads=6 / sliced_threads=0 / nr=0 / decimate=1 / interlaced=0 / bluray_compat=0 / constrained_intra=0 / bframes=12 / b_pyramid=2 / b_adapt=2 / b_bias=0 / direct=1 / weightb=1 / open_gop=0 / weightp=2 / keyint=230 / keyint_min=22 / scenecut=40 / intra_refresh=0 / rc=2pass / mbtree=0 / bitrate=2712 / ratetol=1.0 / qcomp=0.60 / qpmin=10 / qpmax=51 / qpstep=4 / cplxblur=20.0 / qblur=0.5 / ip_ratio=1.40 / pb_ratio=1.30 / aq=1:0.90
Язык : English
Default : Да
Forced : Нет
Идентификатор : 2
Формат : AC-3
Формат/Информация : Audio Coding 3
Расширение режима : CM (complete main)
Параметр Endianness формата : Big
Идентификатор кодека : A_AC3
Продолжительность : 2 ч. 11 м.
Вид битрейта : Постоянный
Битрейт : 448 Кбит/сек
Каналы : 6 каналов
Расположение каналов : Front: L C R, Side: L R, LFE
Частота : 48,0 КГц
Битовая глубина : 16 бит
Метод сжатия : С потерями
Размер потока : 421 Мбайт (14%)
Заголовок : Дубляж (BD EUR) AC3 5.1 @ 448kbps
Язык : Russian
Default : Да
Forced : Да
Идентификатор : 3
Формат : UTF-8
Идентификатор кодека : S_TEXT/UTF8
Идентификатор кодека/Информация : UTF-8 Plain Text
Заголовок : Forced
Язык : Russian
Default : Да
Forced : Да
Идентификатор : 4
Формат : UTF-8
Идентификатор кодека : S_TEXT/UTF8
Идентификатор кодека/Информация : UTF-8 Plain Text
Заголовок : Воронин
Язык : Russian
Идентификатор : 5
Формат : UTF-8
Идентификатор кодека : S_TEXT/UTF8
Идентификатор кодека/Информация : UTF-8 Plain Text
Заголовок : SDH
Язык : English

Скриншот c названием фильма

 GOLD TORRENT! DOWNLOAD TRAFFIC DOES NOT CONSIDER! 
Torrent: Registered [ 2017-10-09 08:33 ]   · D4ADF8FD45462C7054ADE9DE025F6F84DB9E3E3B

Download .torrent

Download

15 KB

Status: checked
Completed: 0 times
Size: 2.9 GB
Поделиться:
terms.php
[Profile] [PM]
Display posts:    
Reply to topic

Current time is: 18-Sep 14:37

All times are UTC + 3



You cannot post new topics in this forum
You cannot reply to topics in this forum
You cannot edit your posts in this forum
You cannot delete your posts in this forum
You cannot vote in polls in this forum
You cannot attach files in this forum
You can download files in this forum