Левша / Southpaw (Антуан Фукуа / Antoine Fuqua) [2015, США, Драма, спорт, боевик, триллер, BDRip-AVC] Dub + Sub Eng + Original Eng

Reply to topic
DL-List and Torrent activity
Size:  3.89 GB   |    Registered:  3 months 12 days   |    Completed:  0 times

Seeder not seen: Never

 
   
 
 
Author Message

admin ®

Gender: Male

Longevity: 2 years 11 months

Posts: 10016

Post 07-Oct-2017 08:24

[Quote]

ЛевшаSouthpaw«Преодолей судьбу»

Страна: США
Жанр: Драма, спорт, боевик, триллер
Год выпуска: 2015
Продолжительность: 02:03:49
Перевод: Профессиональный (дублированный) Bluray
Субтитры: английские
Оригинальная аудиодорожка: английский
Режиссер: Антуан Фукуа / Antoine Fuqua
В ролях: Джейк Джилленхол, Рэйчел МакАдамс, Форест Уитакер, Уна Лоуренс, Фифти Сент, Скайлан Брукс, Наоми Харрис, Виктор Ортис, Бо Напп, Мигель Гомес
Описание: У боксера Билли Хоупа все было прекрасно: звание чемпиона, красавица-жена и любимая дочка. Но фортуна отворачивается от него: при трагических обстоятельствах погибает любимая жена, дисквалификация на ринге, нулевые доходы, суд лишает его родительских прав... Хоуп должен отстоять звание чемпиона и вернуть дочь. Есть ли у Хоупа шансы на победу? Все решит его знаменитый хук левой…
Доп. информация:
Релиз группы:
Сохранены оригинальные главы как на Bluray
Качество видео: BDRip-AVC | Левша / Southpaw (2015) 1080p BD-Remux|HD Club|
Формат видео: MKV
Видео: 1150x478 (2:40:1), 23,976 fps, 3507 Кbps, 0.266 bit/pixe
Аудио: 48 kHz, AC3 Dolby Digital, 3/2 (L,C,R,l,r) + LFE ch, ~448.00 kbps avg DUB
Аудио 2: 48 kHz, AC3 Dolby Digital, 3/2 (L,C,R,l,r) + LFE ch, ~448.00 kbps avg ENG
Формат субтитров: softsub (SRT)
Доп. информация о субтитрах: отключаемые

Знаете ли Вы что

• Сцены боксерских поединков в Лас-Вегасе и в Мэдисон-сквер-гарден были отсняты за две недели. Оба поединка на самом деле снимались в Индианском университете в Пенсильвании.
• Изначально композитором фильма должен был стать Гарри Грегсон-Уильямс. Он даже заявил в одном своем интервью в конце 2014 году, что уже приступил к написанию музыки. Однако вскоре после этого было объявлено, что композитором будет Джеймс Хорнер.
• Оригинальное название фильма — «Southpaw» относится к боксерской терминологии, означая стойку, которую чаще используют боксеры-левши.
• Первоначально проект рассматривался как неофициальное продолжение к фильму «8 миля» (2002) с Эминемом (который на самом деле является левшой) в главной роли. Однако в конечном итоге сценарий претерпел существенные изменения и от этой идеи отказались.
• Хотя Эминем не снялся в фильме из-за своей активной музыкальной жизни, он составил для «Левши» саундтрек и сам исполнил одну из песен – «Phenomenal».
• Из-за небольшого бюджета у режиссера не было денег, чтобы заплатить Джеймсу Хорнеру за написание музыки к фильму. Однако Джеймсу настолько понравилась идея фильма, что он написал музыку бесплатно.
• Лупита Нионго могла исполнить роль Анджелы Риверы, но ей пришлось покинуть проект из-за занятости в фильме «Звёздные войны: Пробуждение силы» (2015).
• Готовясь к своей роли, Джейк Джилленхол изучал боксерский стиль Мигеля Котто.
• Райан Гослинг, Брэдли Купер и Джереми Реннер рассматривались на главную роль в этом фильме.
• Фильм посвящен памяти композитора Джеймса Хорнера.

MediaInfo

General
Unique ID : 243720203468156192357537125460862531026 (0xB75ACDC541B1FAA983955EE928FB75D2)
Complete name : D:\Мои рипы\Левша\Southpaw by_IVAN@.190282.mkv
Format : Matroska
Format version : Version 4 / Version 2
File size : 3.89 GiB
Duration : 2h 3mn
Overall bit rate : 4 492 Kbps
Movie name : Southpaw by_IVAN@190282
Encoded date : UTC 2016-02-27 19:22:17
Writing application : mkvmerge v8.8.0 ('Wind at my back') 64bit
Writing library : libebml v1.3.3 + libmatroska v1.4.4
Attachements : cover.png
DURATION : 01:59:40.840000000
NUMBER_OF_FRAMES : 2283
NUMBER_OF_BYTES : 76541
_STATISTICS_WRITING_APP : mkvmerge v8.8.0 ('Wind at my back') 64bit
_STATISTICS_WRITING_DATE_UT : 2016-02-27 19:22:17
_STATISTICS_TAGS : BPS DURATION NUMBER_OF_FRAMES NUMBER_OF_BYTES
Video
ID : 1
Format : AVC
Format/Info : Advanced Video Codec
Format profile : High@L4.1
Format settings, CABAC : Yes
Format settings, ReFrames : 12 frames
Codec ID : V_MPEG4/ISO/AVC
Duration : 2h 3mn
Bit rate : 3 507 Kbps
Width : 1 150 pixels
Height : 478 pixels
Display aspect ratio : 2.40:1
Frame rate mode : Constant
Frame rate : 23.976 fps
Color space : YUV
Chroma subsampling : 4:2:0
Bit depth : 8 bits
Scan type : Progressive
Bits/(Pixel*Frame) : 0.266
Stream size : 3.03 GiB (78%)
Title : Southpaw by_IVAN@190282
Writing library : x264 core 148 r2597kMod e86f3a1
Encoding settings : cabac=1 / ref=12 / deblock=1:-3:-3 / analyse=0x3:0x133 / me=umh / subme=11 / psy=1 / fade_compensate=0.00 / psy_rd=1.00:0.05 / mixed_ref=1 / me_range=48 / chroma_me=1 / trellis=2 / 8x8dct=1 / cqm=0 / deadzone=21,11 / fast_pskip=0 / chroma_qp_offset=-3 / threads=6 / lookahead_threads=6 / sliced_threads=0 / nr=0 / decimate=1 / interlaced=0 / bluray_compat=0 / constrained_intra=0 / fgo=0 / bframes=16 / b_pyramid=2 / b_adapt=2 / b_bias=0 / direct=3 / weightb=1 / open_gop=0 / weightp=2 / keyint=240 / keyint_min=23 / scenecut=40 / intra_refresh=0 / rc_lookahead=60 / rc=crf / mbtree=0 / crf=17.4000 / qcomp=0.60 / qpmin=0 / qpmax=69 / qpstep=4 / vbv_maxrate=50000 / vbv_bufsize=62500 / crf_max=0.0 / nal_hrd=none / filler=0 / ip_ratio=1.40 / pb_ratio=1.30 / aq=2:1.10
Language : English
Default : Yes
Forced : No
Color range : Limited
Color primaries : BT.709
Transfer characteristics : BT.709
Matrix coefficients : BT.709
DURATION : 02:03:49.255000000
NUMBER_OF_FRAMES : 178124
NUMBER_OF_BYTES : 3337478143
_STATISTICS_WRITING_APP : mkvmerge v8.8.0 ('Wind at my back') 64bit
_STATISTICS_WRITING_DATE_UT : 2016-02-27 19:22:17
_STATISTICS_TAGS : BPS DURATION NUMBER_OF_FRAMES NUMBER_OF_BYTES
Audio #1
ID : 2
Format : AC-3
Format/Info : Audio Coding 3
Mode extension : CM (complete main)
Format settings, Endianness : Big
Codec ID : A_AC3
Duration : 2h 3mn
Bit rate mode : Constant
Bit rate : 448 Kbps
Channel(s) : 6 channels
Channel positions : Front: L C R, Side: L R, LFE
Sampling rate : 48.0 KHz
Compression mode : Lossy
Stream size : 397 MiB (10%)
Title : Dub BD RUS
Default : Yes
Forced : No
Audio #2
ID : 3
Format : AC-3
Format/Info : Audio Coding 3
Mode extension : CM (complete main)
Format settings, Endianness : Big
Codec ID : A_AC3
Duration : 2h 3mn
Bit rate mode : Constant
Bit rate : 448 Kbps
Channel(s) : 6 channels
Channel positions : Front: L C R, Side: L R, LFE
Sampling rate : 48.0 KHz
Compression mode : Lossy
Stream size : 397 MiB (10%)
Title : Eng
Language : English
Default : No
Forced : No
Text
ID : 4
Format : UTF-8
Codec ID : S_TEXT/UTF8
Codec ID/Info : UTF-8 Plain Text
Title : Eng
Language : English
Default : No
Forced : No
Menu
00:00:00.000 : en:Chapter 1
00:08:49.695 : en:Chapter 2
00:12:58.569 : en:Chapter 3
00:20:00.657 : en:Chapter 4
00:23:40.085 : en:Chapter 5
00:29:34.147 : en:Chapter 6
00:34:59.555 : en:Chapter 7
00:39:44.298 : en:Chapter 8
00:45:46.285 : en:Chapter 9
00:52:38.655 : en:Chapter 10
00:59:28.815 : en:Chapter 11
01:07:08.733 : en:Chapter 12
01:12:49.823 : en:Chapter 13
01:18:14.481 : en:Chapter 14
01:23:40.056 : en:Chapter 15
01:29:40.416 : en:Chapter 16
01:37:00.147 : en:Chapter 17
01:45:19.896 : en:Chapter 18
01:55:01.060 : en:Chapter 19
01:59:38.504 : en:Chapter 20
02:03:48.254 : en:Chapter 21

x264 log

VIDEO ENCODING
x264 [info]: frame I:1314 Avg QP:15.20 size: 84093 PSNR Mean Y:47.67 U:50.38 V:51.39 Avg:48.48 Global:47.68
x264 [info]: frame P:43392 Avg QP:16.90 size: 33510 PSNR Mean Y:46.46 U:49.25 V:50.44 Avg:47.30 Global:46.36
x264 [info]: frame B:133418 Avg QP:18.99 size: 13288 PSNR Mean Y:45.52 U:48.67 V:50.21 Avg:46.45 Global:45.41
x264 [info]: consecutive B-frames: 3.9% 4.9% 11.4% 18.8% 15.6% 35.8% 4.5% 0.9% 0.9% 0.8% 0.6% 0.4% 0.4% 0.4% 0.2% 0.2% 0.2%
x264 [total]: encoded 178124 frames, 3.14 fps, 3593.88 kb/s, duration 15:45:42.57

Скриншот c названием фильма

Скриншоты

Убедительная просьба пожалуйста кто скачал не бросайте раздачу!!!
 GOLD TORRENT! DOWNLOAD TRAFFIC DOES NOT CONSIDER! 
Torrent: Registered [ 2020-06-06 06:51 ]   · 3ADA691F80DCD982958B5FEB18A11F920DA6FDA5

Download .torrent

Download

20 KB

Status: checked
Completed: 0 times
Size: 3.89 GB
Поделиться:
terms.php
[Profile] [PM]
Display posts:    
Reply to topic

Current time is: 18-Sep 12:55

All times are UTC + 3



You cannot post new topics in this forum
You cannot reply to topics in this forum
You cannot edit your posts in this forum
You cannot delete your posts in this forum
You cannot vote in polls in this forum
You cannot attach files in this forum
You can download files in this forum