Хозяин морей: На краю земли / Master and Commander: The Far Side of the World (Питер Уир / Peter Weir) [2003, США, Боевик, драма, приключения, BDRip-AVC] Dub (BD) + MVO (Супербит) + AVO (А.Гаврилов) + Sub Rus, Eng + Original Eng

Reply to topic
DL-List and Torrent activity
Size:  4.82 GB   |    Registered:  3 years   |    Completed:  0 times

Seeder not seen: Never

 
   
 
 
Author Message

admin ®

Gender: Male

Longevity: 3 years 1 month

Posts: 10044

Post 07-Oct-2017 07:41

[Quote]

Хозяин морей: На краю землиMaster and Commander: The Far Side of the World«The Courage To Do The Impossible Lies In The Hearts of Men»..»

Страна: США
Жанр: Боевик, драма, приключения
Год выпуска: 2003
Продолжительность: 02:18:21
Перевод: Профессиональный (дублированный) BD
Перевод 2: Профессиональный (многоголосый закадровый) Супербит
Перевод 3: Авторский (одноголосый закадровый) А.Гаврилов
Субтитры: русские,английские
Оригинальная аудиодорожка: английский
Режиссер: Питер Уир / Peter Weir
В ролях: Рассел Кроу, Пол Беттани, Джеймс Д`Арси, Эдвард Вудалл, Крис Ларкин, Макс Пиркис, Джек Рэндалл, Макс Бениц, Ли Инглби, Ричард Пейтс
Описание: Действие фильма разворачивается во время наполеоновских войн. Военный парусник Ее Величества «Сюрприз», бороздящий просторы Атлантики, был неожиданно атакован огромным неизвестным кораблем, появившимся из тумана. Благодаря смелости и находчивости команды «Сюрпризу» удается уйти от смерти. Несмотря на тяжелые повреждения и потери, капитан Джек Обри по прозвищу Счастливчик принимает решение преследовать врага и устремляется в погоню, которая уведет его на край света. На кону репутация Джека, его жизнь и жизнь его команды…
Доп. информация:
Релиз группы:
Сохранены оригинальные главы как на Bluray
Качество видео: BDRip-AVC | Хозяин морей: На краю земли / Master and Commander: The Far Side of the World (2003) 1080p BD-Remux| HD club
Формат видео: MKV
Видео: 1152x480 (2.40:1), 23,976 fps, 3118 Кbps, 0.235 bit/pixe
Аудио: 48 kHz, AC3 Dolby Digital, 3/2 (L,C,R,l,r) + LFE ch, ~448.00 kbps avg DUB
Аудио 2: 48 kHz, AC3 Dolby Digital, 3/2 (L,C,R,l,r) + LFE ch, ~448.00 kbps avg MVO отдельно
Аудио 3: 48 kHz, AC3 Dolby Digital, 3/2 (L,C,R,l,r) + LFE ch, ~448.00 kbps avg AVO
отдельно
Аудио 4: 48 kHz, AC3 Dolby Digital, 3/2 (L,C,R,l,r) + LFE ch, ~448.00 kbps avg ENG
Формат субтитров: softsub (SRT)
Доп. информация о субтитрах: отключаемые

MediaInfo

General
Unique ID : 210310668671262289975580190315104273458 (0x9E385C87734B96829C01A5F138658432)
Complete name : E:\Мои рипы\Хозяин морей\Master and Commander The Far Side of the World by_IVAN@190282.mkv
Format : Matroska
Format version : Version 4 / Version 2
File size : 3.96 GiB
Duration : 2h 18mn
Overall bit rate : 4 095 Kbps
Encoded date : UTC 2016-03-08 20:38:13
Writing application : mkvmerge v8.8.0 ('Wind at my back') 64bit
Writing library : libebml v1.3.3 + libmatroska v1.4.4
Attachements : cover.jpg
DURATION : 02:14:02.827000000
NUMBER_OF_FRAMES : 1108
NUMBER_OF_BYTES : 43334
_STATISTICS_WRITING_APP : mkvmerge v8.8.0 ('Wind at my back') 64bit
_STATISTICS_WRITING_DATE_UT : 2016-03-08 20:38:13
_STATISTICS_TAGS : BPS DURATION NUMBER_OF_FRAMES NUMBER_OF_BYTES
Video
ID : 1
Format : AVC
Format/Info : Advanced Video Codec
Format profile : High@L4.1
Format settings, CABAC : Yes
Format settings, ReFrames : 14 frames
Codec ID : V_MPEG4/ISO/AVC
Duration : 2h 18mn
Bit rate : 3 118 Kbps
Width : 1 152 pixels
Height : 480 pixels
Display aspect ratio : 2.40:1
Frame rate mode : Constant
Frame rate : 23.976 fps
Color space : YUV
Chroma subsampling : 4:2:0
Bit depth : 8 bits
Scan type : Progressive
Bits/(Pixel*Frame) : 0.235
Stream size : 3.01 GiB (76%)
Title : Master and Commander The Far Side of the World by_IVAN@190282
Writing library : x264 core 146 r2538kMod 121396c
Encoding settings : cabac=1 / ref=14 / deblock=1:-3:-3 / analyse=0x3:0x113 / me=umh / subme=11 / psy=1 / fade_compensate=0.00 / psy_rd=1.00:0.15 / mixed_ref=1 / me_range=48 / chroma_me=1 / trellis=2 / 8x8dct=1 / cqm=0 / deadzone=21,11 / fast_pskip=0 / chroma_qp_offset=0 / threads=6 / lookahead_threads=6 / sliced_threads=0 / slices=10 / nr=0 / decimate=1 / interlaced=0 / bluray_compat=0 / constrained_intra=0 / fgo=0 / bframes=16 / b_pyramid=2 / b_adapt=2 / b_bias=0 / direct=3 / weightb=1 / open_gop=1 / weightp=2 / keyint=240 / keyint_min=23 / scenecut=40 / intra_refresh=0 / rc_lookahead=40 / rc=crf / mbtree=0 / crf=18.8000 / qcomp=0.60 / qpmin=0 / qpmax=69 / qpstep=4 / vbv_maxrate=50000 / vbv_bufsize=62500 / crf_max=0.0 / nal_hrd=none / filler=0 / ip_ratio=1.40 / pb_ratio=1.30 / aq=1:1.00
Default : Yes
Forced : No
Color range : Limited
Color primaries : BT.709
Transfer characteristics : BT.709
Matrix coefficients : BT.709
Audio #1
ID : 2
Format : AC-3
Format/Info : Audio Coding 3
Mode extension : CM (complete main)
Format settings, Endianness : Big
Codec ID : A_AC3
Duration : 2h 18mn
Bit rate mode : Constant
Bit rate : 448 Kbps
Channel(s) : 6 channels
Channel positions : Front: L C R, Side: L R, LFE
Sampling rate : 48.0 KHz
Compression mode : Lossy
Stream size : 443 MiB (11%)
Title : Dub
Language : Russian
Default : Yes
Forced : No
Audio #2
ID : 3
Format : AC-3
Format/Info : Audio Coding 3
Mode extension : CM (complete main)
Format settings, Endianness : Big
Codec ID : A_AC3
Duration : 2h 18mn
Bit rate mode : Constant
Bit rate : 448 Kbps
Channel(s) : 6 channels
Channel positions : Front: L C R, Side: L R, LFE
Sampling rate : 48.0 KHz
Compression mode : Lossy
Stream size : 443 MiB (11%)
Title : Eng
Language : English
Default : No
Forced : No
Text #1
ID : 4
Format : UTF-8
Codec ID : S_TEXT/UTF8
Codec ID/Info : UTF-8 Plain Text
Title : Rus
Language : Russian
Default : No
Forced : No
Text #2
ID : 5
Format : UTF-8
Codec ID : S_TEXT/UTF8
Codec ID/Info : UTF-8 Plain Text
Title : rus.forsed
Language : Russian
Default : Yes
Forced : No
Text #3
ID : 6
Format : UTF-8
Codec ID : S_TEXT/UTF8
Codec ID/Info : UTF-8 Plain Text
Title : Eng
Language : English
Default : No
Forced : No
Menu
00:00:00.000 : en:1. Main titles
00:02:02.122 : en:2. The HMS surprise
00:03:58.071 : en:3. A shape in the fog
00:08:19.248 : en:4. Under attack
00:12:40.843 : en:5. Lucky Jack's gambit
00:15:17.917 : en:6. The Butcher's Bill
00:18:14.051 : en:7. Aubrey's plan
00:20:23.722 : en:8. No braver patient
00:26:24.624 : en:9. Duet
00:28:05.684 : en:10. The ship of the future
00:31:35.143 : en:11. The captain's table
00:36:57.340 : en:12. Turning the tide
00:39:52.723 : en:13. A small surprise
00:45:51.999 : en:14. The storm
00:49:34.680 : en:15. Man overboard
00:54:40.986 : en:16. Pride or duty?
00:58:16.576 : en:17. Our destination
01:02:39.756 : en:18. The Galapagos
01:04:39.083 : en:19. Survivors
01:06:23.312 : en:20. Broken promises
01:09:17.528 : en:21. Batteries and biology
01:11:56.061 : en:22. The doldrums
01:13:57.391 : en:23. Hollom's weakness
01:19:11.872 : en:24. Jonah
01:26:16.212 : en:25. The doctor's dilemma
01:30:09.237 : en:26. Heal thyself
01:33:31.022 : en:27. The fighting naturalist
01:38:03.252 : en:28. An unexpected find
01:40:22.891 : en:29. Nature and naval warfare
01:44:34.768 : en:30. Surprise is on our side
01:48:15.071 : en:31. Against the Acheron
01:57:18.114 : en:32. Wolf in sheeps clothing
01:59:15.148 : en:33. Committed to the deep
02:03:40.996 : en:34. Captain's orders
02:05:28.562 : en:35. Requirements of the service
02:08:43.132 : en:36. End titles

x264 log

VIDEO ENCODING
x264 [info]: frame I:1179 Avg QP:16.41 size: 56672
x264 [info]: frame P:43034 Avg QP:17.25 size: 29279
x264 [info]: frame B:154804 Avg QP:19.56 size: 12846
x264 [info]: consecutive B-frames: 1.9% 3.8% 8.5% 20.6% 13.9% 35.9% 4.1% 3.4% 1.2% 1.3% 0.7% 1.7% 0.8% 0.7% 0.4% 0.8% 0.2%
x264 [info]: kb/s:3195.26
x264 [total]: encoded 199017 frames, 6.61 fps, 3195.26 kb/s, duration 8:21:29.89

Скриншот c названием фильма

Скриншоты

Сравнения

Sours by_IVAN@190282
Убедительная просьба пожалуйста кто скачал не бросайте раздачу!!!
 GOLD TORRENT! DOWNLOAD TRAFFIC DOES NOT CONSIDER! 
Torrent: Registered [ 2017-10-07 07:41 ]   · 548361AB4F9AB957AE618A53038BB5C5A3DFD088

Download .torrent

Download

13 KB

Status: checked
Completed: 0 times
Size: 4.82 GB
Поделиться:
terms.php
[Profile] [PM]
Display posts:    
Reply to topic

Current time is: 28-Oct 03:42

All times are UTC + 3



You cannot post new topics in this forum
You cannot reply to topics in this forum
You cannot edit your posts in this forum
You cannot delete your posts in this forum
You cannot vote in polls in this forum
You cannot attach files in this forum
You can download files in this forum