Великолепный / Le Magnifique (Филипп де Брока / Philippe de Broca) [1973, Франция, Италия, Фэнтези, боевик, мелодрама, BDRip-AVC] Dub + MVO + Sub Rus,Eng,Fre + Original Fre

Reply to topic
DL-List and Torrent activity
Size:  3.46 GB   |    Registered:  3 months 12 days   |    Completed:  1 time

Seeder not seen: 3 days

 
   
 
 
Author Message

admin ®

Gender: Male

Longevity: 2 years 11 months

Posts: 10016

Post 07-Oct-2017 07:31

[Quote]

ВеликолепныйLe Magnifique

Страна: Франция, Италия
Жанр: фэнтези, боевик, мелодрама
Год выпуска: 1973
Продолжительность: 01:33:57
Перевод: Профессиональный (дублированный) BD
Перевод 2: Многоголосый закадровый
Субтитры: русские ,французские ,английские
Оригинальная аудиодорожка: французский
Режиссер: Филипп де Брока / Philippe de Broca
В ролях: Жан-Поль Бельмондо, Жаклин Биссет, Витторио Каприоли, Ганс Мейер, Моник Тарбес, Марио Давид, Бруно Гарсен, Раймон Жером, Жан Лефевр, Фабрицио Мореско
Описание: Франсуа Мерлен — писатель криминальных рассказов. С точностью часового механизма он каждый месяц пишет новый роман для своего редактора Шаррона. Каждая история рассказывает об одном и том же герое — Бобе Сен-Клере, влиятельном и лихом секретном агенте.
Доп. информация:
Релиз группы:
Качество видео: BDRip-AVC | Великолепный / Le magnifique (1973) 1080p BD-Remux | HD Club |
Формат видео: MKV
Видео: 1074x646 (1:66:1), 24,00 fps, 4097 Кbps, 0.245 bit/pixe
Аудио: 48 kHz, AC3 Dolby Digital, 2/0 (L,R) ch, ~320.00 kbps avg| DUB
Аудио 2:48 kHz, AC3 Dolby Digital, 2/0 (L,R) ch, ~320.00 kbps avg | MVO
Аудио 3: 48 kHz, AC3 Dolby Digital, 2/0 (L,R) ch, ~448.00 kbps avg| FRE
Формат субтитров: softsub (SRT)
Доп. информация о субтитрах: отключаемые

MediaInfo

General
Unique ID : 183761556480856321879044566836900249856 (0x8A3F303CA51C8661A34D47F7912FC100)
Complete name : E:\Мои рипы\Великолепный\Le Magnifique by_IVN@190282.mkv
Format : Matroska
Format version : Version 2
File size : 3.46 GiB
Duration : 1h 33mn
Overall bit rate : 5 270 Kbps
Movie name : Великолепный / Le magnifique (1973)
Encoded date : UTC 2015-03-01 01:40:55
Writing application : mkvmerge v7.0.0 ('Where We Going') 64bit built on Jun 9 2014 15:16:27
Writing library : libebml v1.3.0 + libmatroska v1.4.1
DURATION : 01:29:36.375000000
NUMBER_OF_FRAMES : 970
NUMBER_OF_BYTES : 27865
_STATISTICS_WRITING_APP : mkvmerge v7.0.0 ('Where We Going') 64bit built on Jun 9 2014 15:16:27
_STATISTICS_WRITING_DATE_UTC : 2015-03-01 01:40:55
_STATISTICS_TAGS : BPS DURATION NUMBER_OF_FRAMES NUMBER_OF_BYTES
Attachment : Yes
Video
ID : 1
Format : AVC
Format/Info : Advanced Video Codec
Format profile : High@L4.1
Format settings, CABAC : Yes
Format settings, ReFrames : 13 frames
Codec ID : V_MPEG4/ISO/AVC
Duration : 1h 33mn
Bit rate : 4 077 Kbps
Width : 1 074 pixels
Height : 646 pixels
Display aspect ratio : 1.663
Frame rate mode : Constant
Frame rate : 24.000 fps
Color space : YUV
Chroma subsampling : 4:2:0
Bit depth : 8 bits
Scan type : Progressive
Bits/(Pixel*Frame) : 0.245
Stream size : 2.68 GiB (77%)
Title : BDRip-AVC by_IVN@190282
Writing library : x264 core 144 r2525kMod 40bb568
Encoding settings : cabac=1 / ref=13 / deblock=1:-3:-3 / analyse=0x3:0x113 / me=umh / subme=11 / psy=1 / fade_compensate=0.00 / psy_rd=1.00:0.15 / mixed_ref=1 / me_range=48 / chroma_me=1 / trellis=2 / 8x8dct=1 / cqm=0 / deadzone=21,11 / fast_pskip=0 / chroma_qp_offset=0 / threads=6 / lookahead_threads=6 / sliced_threads=0 / slices=10 / nr=0 / decimate=1 / interlaced=0 / bluray_compat=0 / constrained_intra=0 / fgo=0 / bframes=16 / b_pyramid=2 / b_adapt=2 / b_bias=0 / direct=3 / weightb=1 / open_gop=1 / weightp=2 / keyint=240 / keyint_min=23 / scenecut=40 / intra_refresh=0 / rc_lookahead=40 / rc=crf / mbtree=0 / crf=18.6000 / qcomp=0.60 / qpmin=0 / qpmax=69 / qpstep=4 / vbv_maxrate=50000 / vbv_bufsize=62500 / crf_max=0.0 / nal_hrd=none / filler=0 / ip_ratio=1.40 / pb_ratio=1.30 / aq=1:1.00
Default : Yes
Forced : No
Color primaries : BT.709
Transfer characteristics : BT.709
Matrix coefficients : BT.709
Audio #1
ID : 2
Format : AC-3
Format/Info : Audio Coding 3
Mode extension : CM (complete main)
Format settings, Endianness : Big
Codec ID : A_AC3
Duration : 1h 33mn
Bit rate mode : Constant
Bit rate : 320 Kbps
Channel(s) : 2 channels
Channel positions : Front: L R
Sampling rate : 48.0 KHz
Bit depth : 16 bits
Compression mode : Lossy
Stream size : 215 MiB (6%)
Title : Dub
Language : Russian
Default : Yes
Forced : No
Audio #2
ID : 3
Format : AC-3
Format/Info : Audio Coding 3
Mode extension : CM (complete main)
Format settings, Endianness : Big
Codec ID : A_AC3
Duration : 1h 33mn
Bit rate mode : Constant
Bit rate : 320 Kbps
Channel(s) : 2 channels
Channel positions : Front: L R
Sampling rate : 48.0 KHz
Bit depth : 16 bits
Compression mode : Lossy
Stream size : 215 MiB (6%)
Title : Mvo
Language : Russian
Default : No
Forced : No
Audio #3
ID : 4
Format : AC-3
Format/Info : Audio Coding 3
Mode extension : CM (complete main)
Format settings, Endianness : Big
Codec ID : A_AC3
Duration : 1h 33mn
Bit rate mode : Constant
Bit rate : 448 Kbps
Channel(s) : 2 channels
Channel positions : Front: L R
Sampling rate : 48.0 KHz
Bit depth : 16 bits
Compression mode : Lossy
Stream size : 301 MiB (9%)
Title : Fre
Language : French
Default : No
Forced : No
Text #1
ID : 5
Format : UTF-8
Codec ID : S_TEXT/UTF8
Codec ID/Info : UTF-8 Plain Text
Title : Rus
Language : Russian
Default : No
Forced : No
Text #2
ID : 6
Format : UTF-8
Codec ID : S_TEXT/UTF8
Codec ID/Info : UTF-8 Plain Text
Title : Fre
Language : French
Default : No
Forced : No
Text #3
ID : 7
Format : UTF-8
Codec ID : S_TEXT/UTF8
Codec ID/Info : UTF-8 Plain Text
Title : Eng
Language : English
Default : No
Forced : No
Menu
00:00:00.000 : en:Chapter 1
00:07:33.411 : en:Chapter 2
00:12:00.302 : en:Chapter 3
00:12:59.445 : en:Chapter 4
00:15:55.370 : en:Chapter 5
00:20:56.922 : en:Chapter 6
00:23:15.434 : en:Chapter 7
00:25:52.675 : en:Chapter 8
00:29:59.255 : en:Chapter 9
00:38:14.041 : en:Chapter 10
00:46:43.842 : en:Chapter 11
00:49:46.315 : en:Chapter 12
00:53:19.528 : en:Chapter 13
00:55:10.222 : en:Chapter 14
00:58:07.858 : en:Chapter 15
01:08:42.326 : en:Chapter 16
01:12:22.337 : en:Chapter 17
01:15:45.707 : en:Chapter 18
01:19:10.162 : en:Chapter 19
01:22:46.836 : en:Chapter 20
01:25:09.686 : en:Chapter 21
01:28:07.738 : en:Chapter 22

x264 log

VIDEO ENCODING
x264 [info]: frame I:798 Avg QP:18.54 size: 82660
x264 [info]: frame P:32710 Avg QP:20.18 size: 41918
x264 [info]: frame B:101793 Avg QP:21.78 size: 14800
x264 [info]: consecutive B-frames: 2.6% 3.7% 11.7% 27.4% 16.3% 34.6% 3.2% 0.4% 0.1% 0.0% 0.0% 0.0% 0.0% 0.0% 0.0% 0.0% 0.0%
x264 [info]: kb/s:4177.20
x264 [total]: encoded 135301 frames, 5.48 fps, 4177.20 kb/s, duration 6:51:09.61

Скриншот c названием фильма

Скриншоты

Убедительная просьба пожалуйста кто скачал не бросайте раздачу!!!
 GOLD TORRENT! DOWNLOAD TRAFFIC DOES NOT CONSIDER! 
Torrent: Registered [ 2020-06-06 05:17 ]   · 63F4F8FE343F944F5610E8281D2125AFA20AF8A3

Download .torrent

Download

18 KB

Status: checked
Completed: 1 times
Size: 3.46 GB
Поделиться:
terms.php
[Profile] [PM]
Display posts:    
Reply to topic

Current time is: 18-Sep 13:46

All times are UTC + 3



You cannot post new topics in this forum
You cannot reply to topics in this forum
You cannot edit your posts in this forum
You cannot delete your posts in this forum
You cannot vote in polls in this forum
You cannot attach files in this forum
You can download files in this forum