Перевозчик / The Transporter (Луи Летерье / Louis Leterrier, Кори Юэн / Corey Yuen) [2002, Франция, США, Боевик, триллер, криминал, BDRip-AVC] Dub + Sub Rus, Eng + Original Eng

Reply to topic
DL-List and Torrent activity
Size:  3.39 GB   |    Registered:  3 years   |    Completed:  0 times

Seeder not seen: Never

 
   
 
 
Author Message

admin ®

Gender: Male

Longevity: 3 years 1 month

Posts: 10044

Post 07-Oct-2017 04:49

[Quote]

ПеревозчикThe Transporte«Правила создаются, чтобы их нарушать»

Страна: Франция, США
Жанр: боевик, триллер, криминал
Год выпуска: 2002
Продолжительность: 01:32:32
Перевод: Профессиональный (дублированный) Blu-ray
Перевод 2: Авторский (одноголосый закадровый) А.Гаврилов
Перевод 3: Авторский (одноголосый закадровый) Ю.Живов
Субтитры: русские,английские
Оригинальная аудиодорожка: английский
Режиссер: Луи Летерье / Louis Leterrier, Кори Юэн / Corey Yuen
В ролях: Джейсон Стэтхэм, Шу Ци, Мэтт Шульце, Франсуа Берлеан, Рик Янг, Даг Рэнд, Дидье Сен Мелен, Тони Десканвелль, Лорен Деспонд, Маттье Альбертини
Описание: Бывший десантник Фрэнк Мартин имеет неплохой бизнес - перевозит любые грузы по французскому Средиземноморью и делает свою работу быстро и качественно. Недостатка в клиентах нет, ведь он всегда неукоснительно соблюдает три правила: не меняет условий сделки, не спрашивает никаких имен и никогда не заглядывает в багаж. Но однажды, перевозя груз клиента по имени Уолл Стрит, Фрэнк обнаруживает, что мешок шевелится. Впервые за все время Мартин нарушает правило, заглядывает внутрь пакета и обнаруживает там красивую женщину, которая оказывается дочерью видного китайского мафиози...
Доп. информация:
Релиз группы:
Качество видео: BDRip-AVC |Перевозчик / The Transporter (2002) 1080p BD-Remux| HD club
Формат видео: MKV
Видео: 1152x492 (2:35:1), 23,976 fps, 3375 Кbps, 0.247 bit/pixe
Аудио: 48 kHz, AC3 Dolby Digital, 3/2 (L,C,R,l,r) + LFE ch, ~448.00 kbps avg | DUB
Аудио 2: 48 kHz, AC3 Dolby Digital, 3/2 (L,C,R,l,r) + LFE ch, ~448.00 kbps avg | ENG
Аудио 3: 48 kHz, AC3 Dolby Digital, 3/2 (L,C,R,l,r) + LFE ch, ~448.00 kbps avg | AVO отдельно
Аудио 4: 48 kHz, AC3 Dolby Digital, 3/2 (L,C,R,l,r) + LFE ch, ~448.00 kbps avg | AVO отдельно
Формат субтитров: softsub (SRT)
Доп. информация о субтитрах: отключаемые

MediaInfo

General
Unique ID : 213046534378453769268901920494944703383 (0xA047451F6C7D0EDAADF67C884D22D397)
Complete name : E:\Мои рипы\Перевозчик\The Transporter by_IVAN@190282.mkv
Format : Matroska
Format version : Version 4 / Version 2
File size : 2.81 GiB
Duration : 1h 32mn
Overall bit rate : 4 340 Kbps
Movie name : The Transporter
Encoded date : UTC 2016-03-09 19:58:44
Writing application : mkvmerge v8.8.0 ('Wind at my back') 64bit
Writing library : libebml v1.3.3 + libmatroska v1.4.4
Attachements : cover.jpg
DURATION : 01:22:59.688000000
NUMBER_OF_FRAMES : 718
NUMBER_OF_BYTES : 20389
_STATISTICS_WRITING_APP : mkvmerge v8.8.0 ('Wind at my back') 64bit
_STATISTICS_WRITING_DATE_UT : 2016-03-09 19:58:44
_STATISTICS_TAGS : BPS DURATION NUMBER_OF_FRAMES NUMBER_OF_BYTES
Video
ID : 1
Format : AVC
Format/Info : Advanced Video Codec
Format profile : High@L4.1
Format settings, CABAC : Yes
Format settings, ReFrames : 13 frames
Codec ID : V_MPEG4/ISO/AVC
Duration : 1h 32mn
Bit rate : 3 358 Kbps
Width : 1 152 pixels
Height : 492 pixels
Display aspect ratio : 2.35:1
Frame rate mode : Constant
Frame rate : 23.976 fps
Color space : YUV
Chroma subsampling : 4:2:0
Bit depth : 8 bits
Scan type : Progressive
Bits/(Pixel*Frame) : 0.247
Stream size : 2.17 GiB (77%)
Title : The Transporter by_IVAN@190282
Writing library : x264 core 146 r2538kMod 121396c
Encoding settings : cabac=1 / ref=13 / deblock=1:-3:-3 / analyse=0x3:0x113 / me=umh / subme=11 / psy=1 / fade_compensate=0.00 / psy_rd=1.00:0.15 / mixed_ref=1 / me_range=48 / chroma_me=1 / trellis=2 / 8x8dct=1 / cqm=0 / deadzone=21,11 / fast_pskip=0 / chroma_qp_offset=0 / threads=6 / lookahead_threads=6 / sliced_threads=0 / slices=10 / nr=0 / decimate=1 / interlaced=0 / bluray_compat=0 / constrained_intra=0 / fgo=0 / bframes=16 / b_pyramid=2 / b_adapt=2 / b_bias=0 / direct=3 / weightb=1 / open_gop=1 / weightp=2 / keyint=240 / keyint_min=23 / scenecut=40 / intra_refresh=0 / rc_lookahead=40 / rc=crf / mbtree=0 / crf=18.0000 / qcomp=0.60 / qpmin=0 / qpmax=69 / qpstep=4 / vbv_maxrate=50000 / vbv_bufsize=62500 / crf_max=0.0 / nal_hrd=none / filler=0 / ip_ratio=1.40 / pb_ratio=1.30 / aq=1:1.00
Default : Yes
Forced : No
Color range : Limited
Color primaries : BT.709
Transfer characteristics : BT.709
Matrix coefficients : BT.709
Audio #1
ID : 2
Format : AC-3
Format/Info : Audio Coding 3
Mode extension : CM (complete main)
Format settings, Endianness : Big
Codec ID : A_AC3
Duration : 1h 32mn
Bit rate mode : Constant
Bit rate : 448 Kbps
Channel(s) : 6 channels
Channel positions : Front: L C R, Side: L R, LFE
Sampling rate : 48.0 KHz
Compression mode : Lossy
Stream size : 297 MiB (10%)
Title : Dub
Language : Russian
Default : Yes
Forced : No
Audio #2
ID : 3
Format : AC-3
Format/Info : Audio Coding 3
Mode extension : CM (complete main)
Format settings, Endianness : Big
Codec ID : A_AC3
Duration : 1h 32mn
Bit rate mode : Constant
Bit rate : 448 Kbps
Channel(s) : 6 channels
Channel positions : Front: L C R, Side: L R, LFE
Sampling rate : 48.0 KHz
Compression mode : Lossy
Stream size : 297 MiB (10%)
Title : Eng
Language : English
Default : No
Forced : No
Text #1
ID : 4
Format : UTF-8
Codec ID : S_TEXT/UTF8
Codec ID/Info : UTF-8 Plain Text
Title : Rus
Language : Russian
Default : No
Forced : No
Text #2
ID : 5
Format : UTF-8
Codec ID : S_TEXT/UTF8
Codec ID/Info : UTF-8 Plain Text
Title : Eng
Language : English
Default : No
Forced : No
Menu
00:00:00.000 : de:A Precise Business
00:05:07.140 : de:The Getaway
00:10:48.314 : de:Never Change the Deal
00:14:54.977 : de:Main Titles
00:19:06.603 : de:Nothing Out of Place
00:27:31.816 : de:Breaking the Rules
00:31:36.477 : de:Crashing Wall Street
00:36:48.247 : de:The Package
00:38:42.153 : de:Another Delivery
00:44:26.372 : de:Surprise Package
00:50:06.753 : de:A Force of One
00:51:16.740 : de:The Stowaway
00:56:25.590 : de:Lai
01:01:39.278 : de:The New Cook
01:07:19.368 : de:Under Siege
01:16:41.096 : de:Nothing But Trouble
01:19:40.692 : de:The Official Story
01:24:02.787 : de:Not Everything's A Lie
01:26:44.574 : de:The Heart of the Matter

x264 log

VIDEO ENCODING
x264 [info]: frame I:1091 Avg QP:16.39 size: 79901
x264 [info]: frame P:33481 Avg QP:17.33 size: 33796
x264 [info]: frame B:98580 Avg QP:19.68 size: 11865
x264 [info]: consecutive B-frames: 3.6% 5.6% 10.1% 27.6% 20.2% 26.9% 3.6% 1.4% 0.5% 0.1% 0.1% 0.1% 0.0% 0.0% 0.0% 0.0% 0.1%
x264 [info]: kb/s:3440.43
x264 [total]: encoded 133152 frames, 5.93 fps, 3440.43 kb/s, duration 6:14:27.63

Скриншот c названием фильма

Скриншоты

Убедительная просьба пожалуйста кто скачал не бросайте раздачу!!!
 GOLD TORRENT! DOWNLOAD TRAFFIC DOES NOT CONSIDER! 
Torrent: Registered [ 2017-10-07 04:49 ]   · 474FCE39B16E3EF7017F024E4C46112684CD0899

Download .torrent

Download

18 KB

Status: checked
Completed: 0 times
Size: 3.39 GB
Поделиться:
terms.php
[Profile] [PM]
Display posts:    
Reply to topic

Current time is: 28-Oct 02:33

All times are UTC + 3



You cannot post new topics in this forum
You cannot reply to topics in this forum
You cannot edit your posts in this forum
You cannot delete your posts in this forum
You cannot vote in polls in this forum
You cannot attach files in this forum
You can download files in this forum