Перевозчик: Наследие / The Transporter Refueled (Камиль Деламарр / Camille Delamarre) [2015, Франция, Китай, Бельгия, боевик, триллер, криминал, BDRip-AVC] Dub

Reply to topic
DL-List and Torrent activity
Size:  2.95 GB   |    Registered:  2 years 11 months   |    Completed:  0 times

Seeder not seen: Never

 
   
 
 
Author Message

admin ®

Gender: Male

Longevity: 2 years 11 months

Posts: 10017

Post 07-Oct-2017 04:25

[Quote]

Перевозчик: НаследиеThe Transporter Refueled

Страна: Франция, Китай, Бельгия
Жанр: боевик, триллер, криминал
Год выпуска: 2015
Продолжительность: 01:32:01
Перевод: Профессиональный (дублированный) Bluray RUS
Субтитры: нет
Оригинальная аудиодорожка: нет
Режиссер: Камиль Деламарр / Camille Delamarre
В ролях: Эд Скрейн, Рэй Стивенсон, Лоан Шабаноль, Габриэлла Райт, Татьяна Пайкович, Венься Ю, Радивойе Буквич, Ноэми Ленуар, Юрий Колокольников, Ленн Кудрявицки
Описание: Фрэнк Мартин — самый высококвалифицированный перевозчик, которого только можно нанять за деньги. Ставки выше, технологии поднялись на более высокий уровень, но правила те же: никогда не изменять условия сделки, никаких имен и никогда не открывать груз.
Когда Фрэнка нанимает хитроумная красотка Анна и ее три очаровательные сообщницы, он быстро выясняет, что его водят за нос. Анна и ее команда похитили его отца, чтобы заставить Фрэнка помочь им разобраться с группой безжалостных торговцев людьми.
Доп. информация:
Релиз группы:
Качество видео: BDRip-AVC | Перевозчик: Наследие / The Transporter Refueled (2015) Blu-ray RUS 1080i AVC DTS-HD 5.1| HD club
Формат видео: MKV
Видео: 1146x480 (2:40:1), 25,00 fps, 4051 Кbps, 0.295 bit/pixe
Аудио: 48 kHz, AC3 Dolby Digital, 3/2 (L,C,R,l,r) + LFE ch, ~448.00 kbps avg | DUB

MediaInfo

General
Unique ID : 253299850492599370743081209458369053757 (0xBE8FC6D5A18AAD23A7375F5123F9443D)
Complete name : D:\Мои рипы\Перевозчик наследие\The Transporter Refueled by_IVAN@190282.mkv
Format : Matroska
Format version : Version 4 / Version 2
File size : 2.95 GiB
Duration : 1h 32mn
Overall bit rate : 4 590 Kbps
Movie name : The Transporter Refueled by_IVAN@190282
Encoded date : UTC 2015-12-16 14:55:18
Writing application : mkvmerge v8.6.1 ('Flying') 64bit
Writing library : libebml v1.3.3 + libmatroska v1.4.4
Attachements : cover.jpg
DURATION : 01:32:01.888000000
NUMBER_OF_FRAMES : 172559
NUMBER_OF_BYTES : 309225728
_STATISTICS_WRITING_APP : mkvmerge v8.6.1 ('Flying') 64bit
_STATISTICS_WRITING_DATE_UT : 2015-12-16 14:55:18
_STATISTICS_TAGS : BPS DURATION NUMBER_OF_FRAMES NUMBER_OF_BYTES
Video
ID : 1
Format : AVC
Format/Info : Advanced Video Codec
Format profile : High@L4.1
Format settings, CABAC : Yes
Format settings, ReFrames : 11 frames
Codec ID : V_MPEG4/ISO/AVC
Duration : 1h 32mn
Bit rate : 4 051 Kbps
Width : 1 146 pixels
Height : 480 pixels
Display aspect ratio : 2.40:1
Frame rate mode : Constant
Frame rate : 25.000 fps
Color space : YUV
Chroma subsampling : 4:2:0
Bit depth : 8 bits
Scan type : Progressive
Bits/(Pixel*Frame) : 0.295
Stream size : 2.60 GiB (88%)
Title : The Transporter Refueled by_IVAN@190282
Writing library : x264 core 148 r2638kMod 7599210
Encoding settings : cabac=1 / ref=11 / deblock=1:-3:-2 / analyse=0x3:0x133 / me=umh / subme=11 / psy=1 / fade_compensate=0.00 / psy_rd=1.00:0.05 / mixed_ref=1 / me_range=48 / chroma_me=1 / trellis=2 / 8x8dct=1 / cqm=0 / deadzone=21,11 / fast_pskip=0 / chroma_qp_offset=-3 / threads=6 / lookahead_threads=6 / sliced_threads=0 / nr=0 / decimate=1 / interlaced=0 / bluray_compat=0 / constrained_intra=0 / fgo=0 / bframes=16 / b_pyramid=2 / b_adapt=2 / b_bias=0 / direct=3 / weightb=1 / open_gop=0 / weightp=2 / keyint=240 / keyint_min=24 / scenecut=40 / intra_refresh=0 / rc_lookahead=60 / rc=crf / mbtree=0 / crf=17.4000 / qcomp=0.60 / qpmin=0 / qpmax=69 / qpstep=4 / vbv_maxrate=50000 / vbv_bufsize=62500 / crf_max=0.0 / nal_hrd=none / filler=0 / ip_ratio=1.40 / pb_ratio=1.30 / aq=2:1.10
Language : English
Default : Yes
Forced : No
Color range : Limited
Color primaries : BT.709
Transfer characteristics : BT.709
Matrix coefficients : BT.709
DURATION : 01:32:01.760000000
NUMBER_OF_FRAMES : 138044
NUMBER_OF_BYTES : 2857909782
_STATISTICS_WRITING_APP : mkvmerge v8.6.1 ('Flying') 64bit
_STATISTICS_WRITING_DATE_UT : 2015-12-16 14:55:18
_STATISTICS_TAGS : BPS DURATION NUMBER_OF_FRAMES NUMBER_OF_BYTES
Audio
ID : 2
Format : AC-3
Format/Info : Audio Coding 3
Mode extension : CM (complete main)
Format settings, Endianness : Big
Codec ID : A_AC3
Duration : 1h 32mn
Bit rate mode : Constant
Bit rate : 448 Kbps
Channel(s) : 6 channels
Channel positions : Front: L C R, Side: L R, LFE
Sampling rate : 48.0 KHz
Compression mode : Lossy
Stream size : 295 MiB (10%)
Title : Dub BD RUS
Default : Yes
Forced : No
Menu
00:00:00.000 : en:00:00:00.000
00:03:29.042 : en:00:03:29.042
00:06:43.278 : en:00:06:43.278
00:11:22.599 : en:00:11:22.599
00:15:01.651 : en:00:15:01.651
00:20:21.512 : en:00:20:21.512
00:24:49.905 : en:00:24:49.905
00:27:03.664 : en:00:27:03.664
00:29:29.643 : en:00:29:29.643
00:32:56.600 : en:00:32:56.600
00:35:48.605 : en:00:35:48.605
00:37:35.879 : en:00:37:35.879
00:41:53.845 : en:00:41:53.845
00:48:09.887 : en:00:48:09.887
00:52:44.536 : en:00:52:44.536
00:57:42.793 : en:00:57:42.793
01:01:01.658 : en:01:01:01.658
01:06:43.541 : en:01:06:43.541
01:10:50.204 : en:01:10:50.204
01:13:06.048 : en:01:13:06.048
01:18:27.244 : en:01:18:27.244
01:20:18.397 : en:01:20:18.397
01:21:53.408 : en:01:21:53.408
01:24:16.885 : en:01:24:16.885
01:27:00.132 : en:01:27:00.132
01:28:45.070 : en:01:28:45.070
01:30:07.110 : en:01:30:07.110

x264 log

VIDEO ENCODING
x264 [info]: frame I:1315 Avg QP:17.13 size: 75936 PSNR Mean Y:46.11 U:51.21 V:50.76 Avg:47.12 Global:46.48
x264 [info]: frame P:39305 Avg QP:18.84 size: 34473 PSNR Mean Y:44.88 U:50.96 V:50.34 Avg:45.91 Global:45.11
x264 [info]: frame B:97424 Avg QP:20.59 size: 14402 PSNR Mean Y:43.82 U:50.94 V:50.06 Avg:44.94 Global:44.11
x264 [info]: consecutive B-frames: 6.2% 7.9% 12.1% 31.2% 19.5% 15.3% 5.0% 0.6% 0.7% 0.3% 0.2% 0.0% 0.5% 0.1% 0.2% 0.0% 0.2%
x264 [total]: encoded 138044 frames, 6.50 fps, 4140.58 kb/s, duration 5:53:50.40

Скриншот c названием фильма

Скриншоты

Убедительная просьба пожалуйста кто скачал не бросайте раздачу!!!
 GOLD TORRENT! DOWNLOAD TRAFFIC DOES NOT CONSIDER! 
Torrent: Registered [ 2017-10-07 04:25 ]   · 052049F4FB09F72AF8294BD952225776EF7F5784

Download .torrent

Download

15 KB

Status: checked
Completed: 0 times
Size: 2.95 GB
Поделиться:
terms.php
[Profile] [PM]
Display posts:    
Reply to topic

Current time is: 26-Sep 07:53

All times are UTC + 3



You cannot post new topics in this forum
You cannot reply to topics in this forum
You cannot edit your posts in this forum
You cannot delete your posts in this forum
You cannot vote in polls in this forum
You cannot attach files in this forum
You can download files in this forum