Свалка / Trash (Стивен Долдри / Stephen Daldry) [2014, Великобритания, Бразилия, Триллер, драма, криминал, приключения, BDRip-AVC] Dub + Sub Rus, Eng + Original Eng

Reply to topic
DL-List and Torrent activity
Size:  3.07 GB   |    Registered:  4 months 16 days   |    Completed:  0 times

Seeder not seen: Never

 
   
 
 
Author Message

admin ®

Gender: Male

Longevity: 3 years

Posts: 10054

Post 06-Oct-2017 06:53

[Quote]

СвалкаTrash«You never know what you might find»

Страна: Великобритания, Бразилия
Жанр: Триллер, драма, криминал, приключения
Год выпуска: 2014
Продолжительность: 01:53:43
Перевод: Профессиональный (дублированный) Blu-ray CEE
Субтитры: русские,английские
Оригинальная аудиодорожка: английский
Режиссер: Стивен Долдри / Stephen Daldry
В ролях: Руни Мара, Мартин Шин, Вагнер Моура, Селтон Мелу, Кристиана Аманпур, Риксон Тевес, Андре Рамиру, , Хесвита Барбоса, Нелсон Шавьер
Описание: История о трех мальчиках, живущих в стране третьего мира. Они еле сводят концы с концами, копаясь в мусоре. Однажды они находят кожаную сумку, содержимое которой окунает их в ужасное приключение…
Доп. информация:
Релиз группы:
Сохранены оригинальные главы как на Bluray
Качество видео: BDRip-AVC |Свалка / Trash (2014) Blu-ray CEE 1080p AVC DTS 5.1| HD Club |
Формат видео: MKV
Видео: 1136x484 (2:35:1), 23,976 fps, 2909 Кbps, 0.221 bit/pixe
Аудио: 48 kHz, AC3 Dolby Digital, 3/2 (L,C,R,l,r) + LFE ch, ~448.00 kbps avg | DUB
Аудио 2: 48 kHz, AC3 Dolby Digital, 3/2 (L,C,R,l,r) + LFE ch, ~448.00 kbps avg | ENG
Формат субтитров: softsub (SRT)
Доп. информация о субтитрах: отключаемые

MediaInfo

General
Unique ID : 245263444783517635185558501135669184277 (0xB88405711CDFCC2E8A92BD82D15AC715)
Complete name : E:\Мои рипы\Свалка\Trash by_IVAN@190282.mkv
Format : Matroska
Format version : Version 4 / Version 2
File size : 3.07 GiB
Duration : 1h 53mn
Overall bit rate : 3 866 Kbps
Encoded date : UTC 2016-03-10 00:00:40
Writing application : mkvmerge v8.8.0 ('Wind at my back') 64bit
Writing library : libebml v1.3.3 + libmatroska v1.4.4
Attachements : cover.png
DURATION : 01:47:14.302000000
NUMBER_OF_FRAMES : 791
NUMBER_OF_BYTES : 18062
_STATISTICS_WRITING_APP : mkvmerge v8.8.0 ('Wind at my back') 64bit
_STATISTICS_WRITING_DATE_UT : 2016-03-10 00:00:40
_STATISTICS_TAGS : BPS DURATION NUMBER_OF_FRAMES NUMBER_OF_BYTES
Video
ID : 1
Format : AVC
Format/Info : Advanced Video Codec
Format profile : High@L4.1
Format settings, CABAC : Yes
Format settings, ReFrames : 13 frames
Codec ID : V_MPEG4/ISO/AVC
Duration : 1h 53mn
Bit rate : 2 893 Kbps
Width : 1 136 pixels
Height : 484 pixels
Display aspect ratio : 2.35:1
Frame rate mode : Constant
Frame rate : 23.976 fps
Color space : YUV
Chroma subsampling : 4:2:0
Bit depth : 8 bits
Scan type : Progressive
Bits/(Pixel*Frame) : 0.219
Stream size : 2.30 GiB (75%)
Writing library : x264 core 144 r2525kMod 40bb568
Encoding settings : cabac=1 / ref=13 / deblock=1:-3:-3 / analyse=0x3:0x113 / me=umh / subme=11 / psy=1 / fade_compensate=0.00 / psy_rd=1.00:0.15 / mixed_ref=1 / me_range=48 / chroma_me=1 / trellis=2 / 8x8dct=1 / cqm=0 / deadzone=21,11 / fast_pskip=0 / chroma_qp_offset=0 / threads=6 / lookahead_threads=6 / sliced_threads=0 / slices=10 / nr=0 / decimate=1 / interlaced=0 / bluray_compat=0 / constrained_intra=0 / fgo=0 / bframes=16 / b_pyramid=2 / b_adapt=2 / b_bias=0 / direct=1 / weightb=1 / open_gop=1 / weightp=2 / keyint=240 / keyint_min=23 / scenecut=40 / intra_refresh=0 / rc_lookahead=40 / rc=crf / mbtree=0 / crf=17.6000 / qcomp=0.60 / qpmin=0 / qpmax=69 / qpstep=4 / vbv_maxrate=50000 / vbv_bufsize=62500 / crf_max=0.0 / nal_hrd=none / filler=0 / ip_ratio=1.40 / pb_ratio=1.30 / aq=1:1.00
Default : Yes
Forced : No
Color range : Limited
Color primaries : BT.709
Transfer characteristics : BT.709
Matrix coefficients : BT.709
Audio #1
ID : 2
Format : AC-3
Format/Info : Audio Coding 3
Mode extension : CM (complete main)
Format settings, Endianness : Big
Codec ID : A_AC3
Duration : 1h 53mn
Bit rate mode : Constant
Bit rate : 448 Kbps
Channel(s) : 6 channels
Channel positions : Front: L C R, Side: L R, LFE
Sampling rate : 48.0 KHz
Compression mode : Lossy
Stream size : 364 MiB (12%)
Title : Dub
Default : Yes
Forced : No
Audio #2
ID : 3
Format : AC-3
Format/Info : Audio Coding 3
Mode extension : CM (complete main)
Format settings, Endianness : Big
Codec ID : A_AC3
Duration : 1h 53mn
Bit rate mode : Constant
Bit rate : 448 Kbps
Channel(s) : 6 channels
Channel positions : Front: L C R, Side: L R, LFE
Sampling rate : 48.0 KHz
Compression mode : Lossy
Stream size : 364 MiB (12%)
Title : Eng
Default : No
Forced : No
Text #1
ID : 4
Format : UTF-8
Codec ID : S_TEXT/UTF8
Codec ID/Info : UTF-8 Plain Text
Title : Rus
Default : No
Forced : No
Text #2
ID : 5
Format : UTF-8
Codec ID : S_TEXT/UTF8
Codec ID/Info : UTF-8 Plain Text
Title : Eng
Default : No
Forced : No
Text #3
ID : 6
Format : UTF-8
Codec ID : S_TEXT/UTF8
Codec ID/Info : UTF-8 Plain Text
Title : Eng
Default : No
Forced : No
Menu
00:00:00.000 : en:Chapter 1
00:05:41.632 : en:Chapter 2
00:11:27.311 : en:Chapter 3
00:17:52.071 : en:Chapter 4
00:23:32.953 : en:Chapter 5
00:31:00.066 : en:Chapter 6
00:38:09.787 : en:Chapter 7
00:43:48.250 : en:Chapter 8
00:53:26.828 : en:Chapter 9
01:01:26.974 : en:Chapter 10
01:08:38.989 : en:Chapter 11
01:15:59.596 : en:Chapter 12
01:23:51.192 : en:Chapter 13
01:26:58.379 : en:Chapter 14
01:29:23.358 : en:Chapter 15
01:33:26.726 : en:Chapter 16
01:37:48.904 : en:Chapter 17
01:40:39.408 : en:Chapter 18
01:44:04.112 : en:Chapter 19
01:49:13.964 : en:Chapter 20
01:53:43.566 : en:Chapter 21

x264 log

VIDEO ENCODING
x264 [info]: frame I:1278 Avg QP:15.46 size: 83713
x264 [info]: frame P:40269 Avg QP:17.08 size: 29564
x264 [info]: frame B:122060 Avg QP:19.06 size: 10090
x264 [info]: consecutive B-frames: 4.0% 4.5% 12.0% 21.1% 16.0% 33.2% 4.5% 1.3% 0.9% 0.7% 0.5% 0.5% 0.3% 0.2% 0.1% 0.0% 0.2%
x264 [info]: kb/s:2965.12
x264 [total]: encoded 163607 frames, 5.41 fps, 2965.12 kb/s, duration 8:24:05.70

Скриншот c названием фильма

Скриншоты

Убедительная просьба пожалуйста кто скачал не бросайте раздачу!!!
 GOLD TORRENT! DOWNLOAD TRAFFIC DOES NOT CONSIDER! 
Torrent: Registered [ 2020-06-06 07:22 ]   · 00D457C77369900785F43F2D9BFF1B083973629E

Download .torrent

Download

16 KB

Status: checked
Completed: 0 times
Size: 3.07 GB
Поделиться:
terms.php
[Profile] [PM]
Display posts:    
Reply to topic

Current time is: 23-Oct 05:29

All times are UTC + 3



You cannot post new topics in this forum
You cannot reply to topics in this forum
You cannot edit your posts in this forum
You cannot delete your posts in this forum
You cannot vote in polls in this forum
You cannot attach files in this forum
You can download files in this forum