Мое невероятное лето с Тесс / Mijn bijzonder rare week met Tess / My Extraordinary Summer with Tess (Стивен Воутерлоод / Steven Wouterlood) [2019, Нидерланды, комедия, драма, семейный, WEB-DLRip] VO (porcellus) + Original Nld

Reply to topic
DL-List and Torrent activity
Size:  1.45 GB   |    Registered:  5 days   |    Completed:  0 times

Seeder not seen: Never

 
   
 
 
Author Message

admin ®

Gender: Male

Longevity: 3 years 2 months

Posts: 10109

Post 22-Nov-2020 05:24

[Quote]

Мое невероятное лето с Тесс / Mijn bijzonder rare week met Tess / My Extraordinary Summer with Tess
Страна: Нидерланды
Жанр: комедия, драма, семейный
Год выпуска: 2019
Продолжительность: 01:24:02
Перевод: одноголосый закадровый -porcellus
Субтитры: нет
Оригинальная аудиодорожка: нидерландская
Режиссер:Стивен Воутерлоод / Steven Wouterlood
В ролях: Сонни ван Уттерен, Йозефина Арендсен, Юлиан Рас, Тьеббо Герритсма, Сюзан Боогардт, Йоханнес Кинаст, Теренсе Шрёрс, Йеннифер Хоффман, Лиззи ван Влёйтен, Ханс Дагелет
Описание: Десятилетний Сам проводит свои летние каникулы вместе с семьей на голландском острове Терсхеллинг. Мальчик отстраняется от близких, проводя время в гордом одиночестве. Но однажды Сам знакомится с Тесс – девочкой, которая увлекает его в свою странную, но захватывающую жизнь. Тесс ищет своего отца, которого она никогда не видела. Проводя время с новой подругой, Сам убеждается в важности семьи и близких.

Сэмпл: http://multi-up.com/1271021
Качество видео: WEB-DLRip
Формат видео: AVI
Видео: 720x352 (2.05:1), 24 fps, XviD build 50 ~2080 kbps avg, 0.34 bit/pixel
Аудио 1: 48 kHz, AC3 Dolby Digital, 2 ch, ~192.00 kbps avg русская
Аудио 2: 48 kHz, AC3 Dolby Digital, 2 ch, ~192.00 kbps avg нидерландская

MediaInfo

General
Complete name : H:\temp\Mijn.bijzonder.rare.week.met.Tess.2019\Mijn.bijzonder.rare.week.met.Tess.2019.avi
Format : AVI
Format/Info : Audio Video Interleave
Format profile : OpenDML
File size : 1.45 GiB
Duration : 1 h 24 min
Overall bit rate : 2 472 kb/s
Writing application : Lavf57.71.100
Video
ID : 0
Format : MPEG-4 Visual
Format profile : Advanced Simple@L5
Format settings, BVOP : 1
Format settings, QPel : No
Format settings, GMC : No warppoints
Format settings, Matrix : Default (MPEG)
Codec ID : XVID
Codec ID/Hint : XviD
Duration : 1 h 24 min
Bit rate : 2 069 kb/s
Width : 720 pixels
Height : 352 pixels
Display aspect ratio : 2.045
Frame rate : 24.000 FPS
Color space : YUV
Chroma subsampling : 4:2:0
Bit depth : 8 bits
Scan type : Progressive
Compression mode : Lossy
Bits/(Pixel*Frame) : 0.340
Stream size : 1.21 GiB (84%)
Writing library : XviD 1.2.1 (UTC 2008-12-04)
Audio #1
ID : 1
Format : AC-3
Format/Info : Audio Coding 3
Mode extension : CM (complete main)
Format settings, Endianness : Big
Codec ID : 2000
Duration : 1 h 24 min
Bit rate mode : Constant
Bit rate : 192 kb/s
Channel(s) : 2 channels
Channel positions : Front: L R
Sampling rate : 48.0 kHz
Frame rate : 31.250 FPS (1536 spf)
Bit depth : 16 bits
Compression mode : Lossy
Stream size : 115 MiB (8%)
Alignment : Aligned on interleaves
Interleave, duration : 32 ms (0.77 video frame)
Audio #2
ID : 2
Format : AC-3
Format/Info : Audio Coding 3
Mode extension : CM (complete main)
Format settings, Endianness : Big
Codec ID : 2000
Duration : 1 h 24 min
Bit rate mode : Constant
Bit rate : 192 kb/s
Channel(s) : 2 channels
Channel positions : Front: L R
Sampling rate : 48.0 kHz
Frame rate : 31.250 FPS (1536 spf)
Bit depth : 16 bits
Compression mode : Lossy
Stream size : 115 MiB (8%)
Alignment : Aligned on interleaves
Interleave, duration : 32 ms (0.77 video frame)

Скриншот c названием фильма

Скриншоты

 GOLD TORRENT! DOWNLOAD TRAFFIC DOES NOT CONSIDER! 
Torrent: Registered [ 2020-11-22 05:24 ]   · 946A938E4D527B2668252F917167ACDBEF7BB6BE

Download .torrent

Download

58 KB

Status: checked
Completed: 0 times
Size: 1.45 GB
Поделиться:
terms.php
[Profile] [PM]
Display posts:    
Reply to topic

Current time is: 27-Nov 08:28

All times are UTC + 3



You cannot post new topics in this forum
You cannot reply to topics in this forum
You cannot edit your posts in this forum
You cannot delete your posts in this forum
You cannot vote in polls in this forum
You cannot attach files in this forum
You can download files in this forum