Возвращение живых мертвецов 3 / Return of the Living Dead 3 (Брайан Юзна / Brian Yuzna) [1993, США, Ужасы, BDRip-AVC] MVO (Велес (CP-Digital) + MVO (FilmExport) + 3x AVO + Sub Rus, Eng + Original Eng

Reply to topic
DL-List and Torrent activity
Size:  4.28 GB   |    Registered:  5 months 19 days   |    Completed:  0 times

Seeder not seen: Never

 
   
 
 
Author Message

admin ®

Gender: Male

Longevity: 3 years 1 month

Posts: 10103

Post 06-Oct-2017 06:37

[Quote]

Возвращение живых мертвецов 3Return of the Living Dead 3«Back from the dead and hungry for more»

Страна: США
Жанр: Ужасы
Год выпуска: 1993
Продолжительность: 01:40:04
Перевод: Профессиональный (многоголосый закадровый) Велес (CP-Digital)
Перевод 2: Профессиональный (многоголосый закадровый) FilmExport)
Перевод 3: Авторский (одноголосый закадровый) Дольский
Перевод 4: Авторский (одноголосый закадровый) Горчаков
Перевод 5: Авторский (одноголосый закадровый) Живов
Субтитры: русские,английские
Оригинальная аудиодорожка: английский
Режиссер: Брайан Юзна / Brian Yuzna
В ролях: Кент МакКорд, Джеймс Т. Каллахан, Сара Дуглас, Мелинда Кларк, Эбигейл Ленц, Дж. Тревор Эдмонд, Джилл Андре, Майкл Декер, Билли Кэйн, Майк Морофф
Описание: В секретной военной лаборатории проводятся эксперименты по воскрешению мертвецов и превращению их в смертоносное биологическое оружие.
Двое молодых людей, Курт, сын руководителя этого необычного научного проекта, и его девушка Джули, становятся случайными свидетелями исследований, и сбегают, не увидев жуткого финала одного из опытов. Ребята попадают в ужасную аварию и Джули погибает. Но Курт знает, что предпринять - вернуть свою любимую из мертвых в лаборатории отца.
Но совершенно не предполагает, какие кровавые события, за пределами самых кошмарных фантазий, ждут его впереди. Вместо любимой девушки он получает не поддающегося уничтожению монстра, чей укус превращает жертв в таких же зомби, жаждущих человеческой плоти.
От себя добавлю - это один из любимых фильмов детства, оказавший огромное впечатление на меня, так как раньше в фильмах подобного жанра я не видел подобных случаев, что бы зомби были способны на высокие чувства, теперь им стали присущи человеческие эмоции. Это качественно снятый, серьезный и очень драматичный фильм - история любви двух молодых людей, которых не способна остановить даже смерть.
Доп. информация:
Релиз группы:
Сохранены оригинальные главы как на Bluray
Качество видео: BDRip-AVC | Возвращение живых мертвецов 3 / Return of the Living Dead 3 (1993) 1080p BD-Remux| BLUEBIRD
Формат видео: MKV
Видео: 1008x546 (1.85:1), 23,976 fps, 4363 Кbps, 0.331 bit/pixe
Аудио: 48 kHz, Dolby Digital Audio Russian 448 kbps 5.1 Велес (CP-Digital)
Аудио 2: 48 kHz, Dolby Digital Audio Russian 192 kbps 2.0 FilmExport)
Аудио 3: 48 kHz, Dolby Digital Audio Russian 192 kbps 2.0 Дольский отдельно
Аудио 4: 48 kHz, Dolby Digital Audio Russian 192 kbps 2.0 Горчаков отдельно
Аудио 5: 48 kHz, Dolby Digital Audio Russian 192 kbps 2.0 Живов отдельно
Аудио 6: 48 kHz, Dolby Digital Audio English 448 kbps 5.1 ENG
Формат субтитров: softsub (SRT)
Доп. информация о субтитрах: отключаемые

MediaInfo

General
Unique ID : 173066402014780583742693261938269348361 (0x82336068E856BF07A84C37FC350FE209)
Complete name : D:\Мои рипы\Возвращение живых мертвецов 3\Return of the Living Dead 3 by_IVAN@190282.mkv
Format : Matroska
Format version : Version 4 / Version 2
File size : 3.89 GiB
Duration : 1h 40mn
Overall bit rate : 5 562 Kbps
Movie name : Return of the Living Dead 3 by_IVAN@190282
Encoded date : UTC 2017-01-13 21:09:08
Writing application : mkvmerge v9.7.1 ('Pandemonium') 64bit
Writing library : libebml v1.3.4 + libmatroska v1.4.5
Attachements : cover.jpg
DURATION : 01:31:27.691000000
NUMBER_OF_FRAMES : 1172
NUMBER_OF_BYTES : 29044
_STATISTICS_WRITING_APP : mkvmerge v9.7.1 ('Pandemonium') 64bit
_STATISTICS_WRITING_DATE_UT : 2017-01-13 21:09:08
_STATISTICS_TAGS : BPS DURATION NUMBER_OF_FRAMES NUMBER_OF_BYTES
Video
ID : 1
Format : AVC
Format/Info : Advanced Video Codec
Format profile : High@L4.1
Format settings, CABAC : Yes
Format settings, ReFrames : 11 frames
Codec ID : V_MPEG4/ISO/AVC
Duration : 1h 40mn
Bit rate : 4 363 Kbps
Width : 1 008 pixels
Height : 546 pixels
Display aspect ratio : 1.85:1
Frame rate mode : Constant
Frame rate : 23.976 fps
Color space : YUV
Chroma subsampling : 4:2:0
Bit depth : 8 bits
Scan type : Progressive
Bits/(Pixel*Frame) : 0.331
Stream size : 3.05 GiB (78%)
Title : Return of the Living Dead 3 by_IVAN@190282
Writing library : x264 core 148 r2721kMod 72d53ab
Encoding settings : cabac=1 / ref=11 / deblock=1:-3:-3 / analyse=0x3:0x113 / me=umh / subme=11 / psy=1 / fade_compensate=0.00 / psy_rd=1.00:0.05 / mixed_ref=1 / me_range=48 / chroma_me=1 / trellis=2 / 8x8dct=1 / cqm=0 / deadzone=21,11 / fast_pskip=0 / chroma_qp_offset=-3 / threads=6 / lookahead_threads=6 / sliced_threads=0 / nr=0 / decimate=1 / interlaced=0 / bluray_compat=0 / constrained_intra=0 / fgo=0 / bframes=16 / b_pyramid=2 / b_adapt=2 / b_bias=0 / direct=3 / weightb=1 / open_gop=0 / weightp=2 / keyint=240 / keyint_min=23 / scenecut=40 / intra_refresh=0 / rc_lookahead=60 / rc=crf / mbtree=0 / crf=18.2000 / qcomp=0.60 / qpmin=0 / qpmax=69 / qpstep=4 / vbv_maxrate=50000 / vbv_bufsize=62500 / crf_max=0.0 / nal_hrd=none / filler=0 / ip_ratio=1.40 / pb_ratio=1.30 / aq=3:0.70
Language : English
Default : Yes
Forced : No
Color range : Limited
Color primaries : BT.709
Transfer characteristics : BT.709
Matrix coefficients : BT.709
DURATION : 01:40:04.666000000
NUMBER_OF_FRAMES : 143968
NUMBER_OF_BYTES : 3381887669
_STATISTICS_WRITING_APP : mkvmerge v9.7.1 ('Pandemonium') 64bit
_STATISTICS_WRITING_DATE_UT : 2017-01-13 21:09:08
_STATISTICS_TAGS : BPS DURATION NUMBER_OF_FRAMES NUMBER_OF_BYTES
Audio #1
ID : 2
Format : AC-3
Format/Info : Audio Coding 3
Mode extension : CM (complete main)
Format settings, Endianness : Big
Codec ID : A_AC3
Duration : 1h 40mn
Bit rate mode : Constant
Bit rate : 448 Kbps
Channel(s) : 6 channels
Channel positions : Front: L C R, Side: L R, LFE
Sampling rate : 48.0 KHz
Compression mode : Lossy
Stream size : 321 MiB (8%)
Title : MVO ( Велес (CP-Digital )
Default : Yes
Forced : No
Audio #2
ID : 3
Format : AC-3
Format/Info : Audio Coding 3
Mode extension : CM (complete main)
Format settings, Endianness : Big
Codec ID : A_AC3
Duration : 1h 40mn
Bit rate mode : Constant
Bit rate : 192 Kbps
Channel(s) : 2 channels
Channel positions : Front: L R
Sampling rate : 48.0 KHz
Compression mode : Lossy
Stream size : 137 MiB (3%)
Title : MVO ( FilmExport )
Default : No
Forced : No
Audio #3
ID : 4
Format : AC-3
Format/Info : Audio Coding 3
Mode extension : CM (complete main)
Format settings, Endianness : Big
Codec ID : A_AC3
Duration : 1h 40mn
Bit rate mode : Constant
Bit rate : 448 Kbps
Channel(s) : 6 channels
Channel positions : Front: L C R, Side: L R, LFE
Sampling rate : 48.0 KHz
Compression mode : Lossy
Stream size : 321 MiB (8%)
Title : Eng
Language : English
Default : No
Forced : No
Text #1
ID : 5
Format : UTF-8
Codec ID : S_TEXT/UTF8
Codec ID/Info : UTF-8 Plain Text
Title : Rus
Default : No
Forced : No
Text #2
ID : 6
Format : UTF-8
Codec ID : S_TEXT/UTF8
Codec ID/Info : UTF-8 Plain Text
Title : Eng
Language : English
Default : No
Forced : No
Menu
00:00:00.000 : en:Chapter 01
00:07:49.092 : en:Chapter 02
00:16:17.556 : en:Chapter 03
00:24:31.259 : en:Chapter 04
00:34:00.412 : en:Chapter 05
00:41:17.555 : en:Chapter 06
00:48:45.712 : en:Chapter 07
00:54:52.913 : en:Chapter 08
01:03:54.121 : en:Chapter 09
01:12:49.573 : en:Chapter 10
01:20:07.761 : en:Chapter 11
01:33:34.734 : en:Chapter 12

x264 log

VIDEO ENCODING
x264 [info]: frame I:845 Avg QP:16.65 size: 66724 PSNR Mean Y:47.70 U:52.15 V:53.41 Avg:48.65 Global:47.17
x264 [info]: frame P:30275 Avg QP:18.34 size: 40947 PSNR Mean Y:45.45 U:50.41 V:51.81 Avg:46.43 Global:45.51
x264 [info]: frame B:112848 Avg QP:19.93 size: 18484 PSNR Mean Y:45.67 U:51.25 V:52.77 Avg:46.75 Global:44.34
x264 [info]: consecutive B-frames: 2.0% 2.7% 7.7% 17.7% 16.8% 36.2% 6.6% 1.9% 1.9% 1.2% 0.8% 0.3% 0.5% 0.3% 0.1% 0.0% 3.2%
x264 [total]: encoded 143968 frames, 0.96 fps, 4501.68 kb/s, duration 41:46:09.07

Скриншот c названием фильма

Скриншоты

Сравнения с исходником

Source by_IVAN@190282
Убедительная просьба пожалуйста кто скачал не бросайте раздачу!!!
 GOLD TORRENT! DOWNLOAD TRAFFIC DOES NOT CONSIDER! 
Torrent: Registered [ 2020-06-06 05:27 ]   · 94A9F25FCE0CB22C6D1DA0782015EA7F2D4F1F94

Download .torrent

Download

11 KB

Status: checked
Completed: 0 times
Size: 4.28 GB
Поделиться:
terms.php
[Profile] [PM]
Display posts:    
Reply to topic

Current time is: 25-Nov 10:49

All times are UTC + 3



You cannot post new topics in this forum
You cannot reply to topics in this forum
You cannot edit your posts in this forum
You cannot delete your posts in this forum
You cannot vote in polls in this forum
You cannot attach files in this forum
You can download files in this forum