Идеальный голос 2 / Pitch Perfect 2 (Элизабет Бэнкс / Elizabeth Banks) [2015, США, комедия, музыка, BDRip-AVC] Dub + Sub Rus, Eng + Original Eng

Reply to topic
DL-List and Torrent activity
Size:  4.27 GB   |    Registered:  4 months 16 days   |    Completed:  0 times

Seeder not seen: Never

 
   
 
 
Author Message

admin ®

Gender: Male

Longevity: 3 years

Posts: 10054

Post 06-Oct-2017 05:02

[Quote]

Идеальный голос 2Pitch Perfect 2«Самые крутые девчонки возвращаются»

Страна: США
Жанр: Комедия, музыка
Год выпуска: 2015
Продолжительность: 01:54:46
Перевод: Профессиональный (дублированный) Blu-ray CEE
Субтитры: русские,английские
Оригинальная аудиодорожка: английский
Режиссер: Элизабет Бэнкс / Elizabeth Banks
В ролях: Анна Кендрик, Ребел Уилсон, Хейли Стайнфелд, Бриттани Сноу, Скайлар Эстин, Адам Дивайн, Кэти Сагал, Анна Кэмп, Бен Платт, Алексис Нэп
Описание: Самые крутые девчонки возвращаются! Теперь у них все по-взрослому: ремиксы – моднее, каблуки – выше, юбки – короче. Но идеальный голос всегда на месте.
Доп. информация:
Релиз группы:
Сохранены оригинальные главы как на Bluray
Качество видео: BDRip-AVC | Идеальный голос 2 / Pitch Perfect 2 (2015) Blu-ray CEE 1080p AVC DTS 5.1|| HD club
Формат видео: MKV
Видео: 1152x624 (1:85:1), 23,976 fps, 4329 Кbps, 0.251 bit/pixe
Аудио: 48 kHz, AC3 Dolby Digital, 3/2 (L,C,R,l,r) + LFE ch, ~448.00 kbps avg DUB
Аудио 2: 48 kHz, AC3 Dolby Digital, 3/2 (L,C,R,l,r) + LFE ch, ~448.00 kbps avg ENG
Формат субтитров: softsub (SRT)
Доп. информация о субтитрах: отключаемые

MediaInfo

General
Unique ID : 203422273453398930411848854095325158740 (0x9909B46C75000713A010C7BEF6C9DD54)
Complete name : D:\Мои рипы\Pitch Perfect 2 by_IVAN@190282.mkv
Format : Matroska
Format version : Version 4 / Version 2
File size : 4.27 GiB
Duration : 1h 54mn
Overall bit rate : 5 331 Kbps
Movie name : Pitch Perfect 2 by_IVAN@190282
Encoded date : UTC 2016-11-02 16:09:30
Writing application : mkvmerge v9.5.0 ('Quiet Fire') 64bit
Writing library : libebml v1.3.4 + libmatroska v1.4.5
Attachements : cover.jpg
DURATION : 01:50:20.364000000
NUMBER_OF_FRAMES : 2069
NUMBER_OF_BYTES : 66259
_STATISTICS_WRITING_APP : mkvmerge v9.5.0 ('Quiet Fire') 64bit
_STATISTICS_WRITING_DATE_UT : 2016-11-02 16:09:30
_STATISTICS_TAGS : BPS DURATION NUMBER_OF_FRAMES NUMBER_OF_BYTES
Video
ID : 1
Format : AVC
Format/Info : Advanced Video Codec
Format profile : High@L4.1
Format settings, CABAC : Yes
Format settings, ReFrames : 12 frames
Codec ID : V_MPEG4/ISO/AVC
Duration : 1h 54mn
Bit rate : 4 329 Kbps
Width : 1 152 pixels
Height : 624 pixels
Display aspect ratio : 1.85:1
Frame rate mode : Constant
Frame rate : 23.976 fps
Color space : YUV
Chroma subsampling : 4:2:0
Bit depth : 8 bits
Scan type : Progressive
Bits/(Pixel*Frame) : 0.251
Stream size : 3.47 GiB (81%)
Title : Pitch Perfect 2 by_IVAN@190282
Writing library : x264 core 148 r2597kMod e86f3a1
Encoding settings : cabac=1 / ref=12 / deblock=1:-3:-3 / analyse=0x3:0x133 / me=umh / subme=11 / psy=1 / fade_compensate=0.00 / psy_rd=1.00:0.05 / mixed_ref=1 / me_range=48 / chroma_me=1 / trellis=2 / 8x8dct=1 / cqm=0 / deadzone=21,11 / fast_pskip=0 / chroma_qp_offset=-3 / threads=6 / lookahead_threads=6 / sliced_threads=0 / nr=0 / decimate=1 / interlaced=0 / bluray_compat=0 / constrained_intra=0 / fgo=0 / bframes=16 / b_pyramid=2 / b_adapt=2 / b_bias=0 / direct=3 / weightb=1 / open_gop=0 / weightp=2 / keyint=240 / keyint_min=23 / scenecut=40 / intra_refresh=0 / rc_lookahead=60 / rc=crf / mbtree=0 / crf=17.8000 / qcomp=0.60 / qpmin=0 / qpmax=69 / qpstep=4 / vbv_maxrate=50000 / vbv_bufsize=62500 / crf_max=0.0 / nal_hrd=none / filler=0 / ip_ratio=1.40 / pb_ratio=1.30 / aq=2:1.10
Language : English
Default : Yes
Forced : No
Color range : Limited
Color primaries : BT.709
Transfer characteristics : BT.709
Matrix coefficients : BT.709
DURATION : 01:54:46.046000000
NUMBER_OF_FRAMES : 165100
NUMBER_OF_BYTES : 3814975630
_STATISTICS_WRITING_APP : mkvmerge v9.5.0 ('Quiet Fire') 64bit
_STATISTICS_WRITING_DATE_UT : 2016-11-02 16:09:30
_STATISTICS_TAGS : BPS DURATION NUMBER_OF_FRAMES NUMBER_OF_BYTES
Audio #1
ID : 2
Format : AC-3
Format/Info : Audio Coding 3
Mode extension : CM (complete main)
Format settings, Endianness : Big
Codec ID : A_AC3
Duration : 1h 54mn
Bit rate mode : Constant
Bit rate : 448 Kbps
Channel(s) : 6 channels
Channel positions : Front: L C R, Side: L R, LFE
Sampling rate : 48.0 KHz
Compression mode : Lossy
Stream size : 368 MiB (8%)
Title : Dub
Language : Russian
Default : Yes
Forced : No
Audio #2
ID : 3
Format : AC-3
Format/Info : Audio Coding 3
Mode extension : CM (complete main)
Format settings, Endianness : Big
Codec ID : A_AC3
Duration : 1h 54mn
Bit rate mode : Constant
Bit rate : 448 Kbps
Channel(s) : 6 channels
Channel positions : Front: L C R, Side: L R, LFE
Sampling rate : 48.0 KHz
Compression mode : Lossy
Stream size : 368 MiB (8%)
Title : Eng
Language : English
Default : No
Forced : No
Text #1
ID : 4
Format : UTF-8
Codec ID : S_TEXT/UTF8
Codec ID/Info : UTF-8 Plain Text
Title : Rus forsed
Language : Russian
Default : Yes
Forced : Yes
Text #2
ID : 5
Format : UTF-8
Codec ID : S_TEXT/UTF8
Codec ID/Info : UTF-8 Plain Text
Title : Rus
Language : Russian
Default : No
Forced : No
Text #3
ID : 6
Format : UTF-8
Codec ID : S_TEXT/UTF8
Codec ID/Info : UTF-8 Plain Text
Title : Eng
Language : English
Default : No
Forced : No
Menu
00:00:00.000 : en:Chapter 1
00:05:49.307 : en:Chapter 2
00:10:14.614 : en:Chapter 3
00:15:28.844 : en:Chapter 4
00:19:17.990 : en:Chapter 5
00:26:57.449 : en:Chapter 6
00:31:53.828 : en:Chapter 7
00:38:59.712 : en:Chapter 8
00:46:11.477 : en:Chapter 9
00:53:20.697 : en:Chapter 10
00:58:35.470 : en:Chapter 11
01:02:51.392 : en:Chapter 12
01:08:34.193 : en:Chapter 13
01:12:25.090 : en:Chapter 14
01:17:20.510 : en:Chapter 15
01:22:42.290 : en:Chapter 16
01:28:15.415 : en:Chapter 17
01:34:27.453 : en:Chapter 18
01:38:42.917 : en:Chapter 19
01:45:49.384 : en:Chapter 20

x264 log

VIDEO ENCODING
x264 [info]: frame I:1513 Avg QP:16.48 size:124352 PSNR Mean Y:46.76 U:48.67 V:48.26 Avg:47.24 Global:46.11
x264 [info]: frame P:40105 Avg QP:18.09 size: 44278 PSNR Mean Y:45.41 U:47.68 V:46.80 Avg:45.90 Global:44.65
x264 [info]: frame B:123482 Avg QP:20.38 size: 14990 PSNR Mean Y:44.77 U:46.86 V:45.91 Avg:45.20 Global:43.93
x264 [info]: consecutive B-frames: 2.7% 3.0% 16.0% 26.4% 18.1% 28.4% 3.2% 1.1% 0.5% 0.2% 0.1% 0.0% 0.1% 0.0% 0.1% 0.0% 0.1%
x264 [total]: encoded 165100 frames, 2.86 fps, 4432.12 kb/s, duration 16:02:59.91

Знаете ли Вы что

• В съемках фильма принимали участие реальные группы, поющие а-капелла. Среди них была группа Pentatonix.
• Ребел Уилсон хотела, чтобы Деми Ловато сыграла в фильме роль одной из участниц коллектива «Беллы», но Ловато отказалась от роли, решив сосредоточиться на своей музыкальной карьере.
• Финальная сцена была снята в городе Батон-Руж, штат Луизиана, США, при участии более 2000 статистов.
• В сцене, где «Беллы» читают гневные письма, письмо в руках у Эми подписано Соней Сотомэйор, которая на момент выхода фильма являлась судьей Верховного суда США.

Скриншот c названием фильма

Скриншоты

Убедительная просьба пожалуйста кто скачал не бросайте раздачу!!!
 GOLD TORRENT! DOWNLOAD TRAFFIC DOES NOT CONSIDER! 
Torrent: Registered [ 2020-06-06 07:30 ]   · E3E8985F4D3A1A90E1488F73231894A3D96E547F

Download .torrent

Download

11 KB

Status: checked
Completed: 0 times
Size: 4.27 GB
Поделиться:
terms.php
[Profile] [PM]
Display posts:    
Reply to topic

Current time is: 23-Oct 05:31

All times are UTC + 3



You cannot post new topics in this forum
You cannot reply to topics in this forum
You cannot edit your posts in this forum
You cannot delete your posts in this forum
You cannot vote in polls in this forum
You cannot attach files in this forum
You can download files in this forum