Барашек Шон: Полет перед Рождеством / Shaun the Sheep: The Flight Before Christmas (2021) WEB-DL 720p | Netflix

Ответить на тему
Статистика раздачи
Размер:  949 MB   |    Зарегистрирован:  2 года 6 месяцев   |    Скачан:  0 раз

Полного источника не было: Никогда

 
   
 
 
Автор Сообщение

admin ®

Статус: Не в сети

Стаж: 6 лет 9 месяцев

Сообщений: 23696

Репутация: 0 [+] [-]

Откуда: Россия

Создавать темы 12-Янв-2022 04:37 | #1

[Цитировать]

Информация о фильме
Название: Барашек Шон: Полет перед Рождеством
Оригинальное название: Shaun the Sheep: The Flight Before Christmas
Год выхода: 2021
Жанр: Мультфильм, короткометражка, комедия, семейный
Режиссер: Steve Cox
В ролях: Бригсток, Кейт Харбор, Анна Леонг Брофи, Саймон Гринолл, Энди Найман, Эмма Тейт, Ричард Веббер
О фильме: Накануне Рождества вся ферма готовится к празднику. Барашку Шону и Тимми очень хочется заранее узнать, какие подарки они получат. Но их любопытство не доводит до добра — Тимми случайно оказывается в мешке с подарками. Теперь Шону нужно успеть до праздника вернуть друга обратно на ферму.

Выпущено: США / Aardman Animations
Продолжительность: 00:30:12
Перевод: не требуется (нет диалогов), субтитры (русские – на звуки) Netflix
Файл
Качество: WEB-DL 720p
Формат: MKV
Видео: MPEG-4 AVC/H.264, 3175 Кбит/сек, 1280x720
Аудио #1: Оригинал (Английский) AC3, 6 ch, 448 Кбит/сек
Аудио #2: Оригинал (Английский) E-AC3, 6 ch, 768 Кбит/сек
Субтитры: русские, английские (на звуки) [вшитые отключаемые]

MediaInfo:

Общее
Уникальный идентификатор : 51069153170937530563619074133559972195 (0x266B8FA66384808EF1C49A7B9DA59163)
Полное имя : F:1.ФИЛЬМЫ3. МУЛЬТФИЛЬМЫБарашек Шон Полет перед Рождеством Shaun the Sheep The Flight Before Christmas 2021Shaun the Sheep The Flight Before Christmas (2021) WEB-DL 720p.mkv
Формат : Matroska
Версия формата : Version 4
Размер файла : 949 Мбайт
Продолжительность : 30 м. 12 с.
Режим общего битрейта : Переменный
Общий поток : 4 392 Кбит/сек
Дата кодирования : UTC 2022-01-10 22:59:50
Программа кодирования : mkvmerge v64.0.0 ('Willows') 64-bit
Библиотека кодирования : libebml v1.4.2 + libmatroska v1.6.4
Видео
Идентификатор : 1
Формат : AVC
Формат/Информация : Advanced Video Codec
Профиль формата : [email protected]
Настройки формата : CABAC / 2 Ref Frames
Параметр CABAC формата : Да
Параметр RefFrames формата : 2 кадра
Идентификатор кодека : V_MPEG4/ISO/AVC
Продолжительность : 30 м. 10 с.
Вид битрейта : Переменный
Битрейт : 3 175 Кбит/сек
Максимальный битрейт : 9 660 Кбит/сек
Ширина : 1 280 пикселей
Высота : 720 пикселей
Соотношение сторон : 16:9
Режим частоты кадров : Постоянный
Частота кадров : 25,000 кадров/сек
Цветовое пространство : YUV
Субдискретизация насыщенности : 4:2:0
Битовая глубина : 8 бит
Тип развёртки : Прогрессивная
Бит/(Пиксели*Кадры) : 0.138
Размер потока : 685 Мбайт (72%)
Заголовок : USA (Aardman Animations)
Язык : English
Default : Да
Forced : Нет
Цветовой диапазон : Limited
Основные цвета : BT.709
Характеристики трансфера : BT.709
Коэффициенты матрицы : BT.709
Аудио #1
Идентификатор : 2
Формат : AC-3
Формат/Информация : Audio Coding 3
Коммерческое название : Dolby Digital
Идентификатор кодека : A_AC3
Продолжительность : 30 м. 12 с.
Вид битрейта : Постоянный
Битрейт : 448 Кбит/сек
Каналы : 6 каналов
Channel layout : L R C LFE Ls Rs
Частота : 48,0 КГц
Частота кадров : 31,250 кадров/сек (1536 SPF)
Метод сжатия : С потерями
Размер потока : 96,8 Мбайт (10%)
Заголовок : Original (English)
Язык : zxx
Service kind : Complete Main
Default : Да
Forced : Нет
Аудио #2
Идентификатор : 3
Формат : E-AC-3 JOC
Формат/Информация : Enhanced AC-3 with Joint Object Coding
Коммерческое название : Dolby Digital Plus with Dolby Atmos
Идентификатор кодека : A_EAC3
Продолжительность : 30 м. 12 с.
Вид битрейта : Постоянный
Битрейт : 768 Кбит/сек
Каналы : 6 каналов
Channel layout : L R C LFE Ls Rs
Частота : 48,0 КГц
Частота кадров : 31,250 кадров/сек (1536 SPF)
Метод сжатия : С потерями
Размер потока : 166 Мбайт (17%)
Заголовок : Original (English)
Язык : zxx
Service kind : Complete Main
Default : Да
Forced : Нет
Complexity index : 16
Number of dynamic objects : 15
Bed channel count : 1 канал
Bed channel configuration : LFE
Текст #1
Идентификатор : 4
Формат : ASS
Идентификатор кодека : S_TEXT/ASS
Идентификатор кодека/Информация : Advanced Sub Station Alpha
Продолжительность : 29 м. 56 с.
Битрейт : 162 бит/сек
Count of elements : 721
Метод сжатия : Без потерь
Размер потока : 35,6 Кбайт (0%)
Язык : Russian
Default : Да
Forced : Нет
Текст #2
Идентификатор : 5
Формат : UTF-8
Идентификатор кодека : S_TEXT/UTF8
Идентификатор кодека/Информация : UTF-8 Plain Text
Продолжительность : 29 м. 56 с.
Битрейт : 52 бит/сек
Count of elements : 721
Размер потока : 11,5 Кбайт (0%)
Заголовок : English
Язык : English
Default : Нет
Forced : Нет
СЭМПЛ
[ivtracker.org].t30509.torrent 
 ЗОЛОТАЯ РАЗДАЧА! СКАЧАННОЕ НЕ ЗАСЧИТЫВАЕТСЯ! 
Торрент: Зарегистрирован [ 2022-01-12 04:37 ] · 8C02F4D39621F26C815B1A4E6F07BB42F4B68E6C

Скачать .torrent

Скачать

19 KB

Статус: проверено · admin · 2 года 6 месяцев назад
Скачан: 0 раз
Размер: 949 MB
Поделиться:
 
Похожие темы
[Профиль] [ЛС]
Вернуться к началу
Показать сообщения:    
Ответить на тему

Текущее время: 13-Июл 01:58

Часовой пояс: UTC + 3



Вы не можете начинать темы
Вы не можете отвечать на сообщения
Вы не можете редактировать свои сообщения
Вы не можете удалять свои сообщения
Вы не можете голосовать в опросах
Вы не можете прикреплять файлы к сообщениям
Вы можете скачивать файлы