Полет навигатора / Flight of the Navigator (1986) BDRip-AVC | D

Reply to topic
DL-List and Torrent activity [Update пиров]
Size:  747 MB   |    Registered:  3 years 5 months   |    Completed:  0 times
Seeders:  12  [  0 KB/s  ]   Show peers in full details
 
   
 
 
Author Message

admin ®

Gender: Male

Longevity: 3 years 7 months

Posts: 10934

Post 10-Dec-2017 04:17

[Quote]

Информация о фильме
Название: Полет навигатора
Оригинальное название: Flight of the Navigator
Год выхода: 1986
Жанр: Фантастика, приключения, семейный
Режиссер: Рэндэл Клайзер
В ролях: Джои Крамер, Пол Рубенс, Вероника Картрайт, Клифф Де Янг, Сара Джессика Паркер, Мэтт Адлер, Ховард Хессеман, Роберт Смолл, Элби Уайтакер, Джонатан Сэнгер, Ирис Экер, Ричард Либерти, Рэймонд Форчион, Синтия Сакелин, Тед Бартщ, Жизелль Эллиотт, Бриджид Клири, Майкл Страно, Пэрррис Бакнер, Робин Питерсон
О фильме :
Дэвиду было всего двенадцать, когда его объявили пропавшим без вести. Через долгих восемь лет он вернулся, также внезапно, как когда-то пропал. Дэвид совсем не изменился за это время. Сразу после его появления в окрестностях города обнаруживают НЛО. И это совсем не случайность. Все эти годы мальчик провел у инопланетян и получил огромное количество знаний, которыми не обладает ни один человек в мире. Кроме всего этого, Дэвид стал отличным пилотом космического корабля, на котором он может отправиться в любую точку вселенной. Он уже не может прожить без приключений, вот и на этот раз, на своем корабле он отправляется в очередное путешествие...

Страна: США, Норвегия
Студия: New Star, Producers Sales Organization (PSO), Viking Films, Walt Disney Pictures
Продолжительность: 01:29:33
Перевод: Профессиональный (полное дублирование) | Киностудия им. Горького
Файл
Формат: MKV
Качество: BDRip-AVC (Blu-Ray Remux 1080p)
Видео: MPEG-4 AVC, 752x424, ~ 1087 Кбит/с
Аудио: AAC-LC, 2 ch, ~ 76 Кбит/с
Субтитры: Русские, украинские, английские

MI

Общее
Уникальный идентификатор : 198807397627493790733713069469139830915 (0x9590E97A834FA79A94F167E148558883)
Полное имя : D:MOVIESFlight of the Navigator.1986.ExKinoRay.mkv
Формат : Matroska
Версия формата : Version 4 / Version 2
Размер файла : 747 Мбайт
Продолжительность : 1 ч. 29 м.
Общий поток : 1165 Кбит/сек
Дата кодирования : UTC 2017-12-09 19:05:03
Программа кодирования : mkvmerge v15.0.0 ('Duel with the Devil') 64-bit
Библиотека кодирования : libebml v1.3.5 + libmatroska v1.4.5
Видео
Идентификатор : 1
Формат : AVC
Формат/Информация : Advanced Video Codec
Профиль формата : High@L4.1
Параметр CABAC формата : Да
Параметр RefFrames формата : 10 кадров
Идентификатор кодека : V_MPEG4/ISO/AVC
Продолжительность : 1 ч. 29 м.
Битрейт : 1087 Кбит/сек
Ширина : 752 пикселя
Высота : 424 пикселя
Соотношение сторон : 16:9
Режим частоты кадров : Постоянный
Частота кадров : 23,976 (24000/1001) кадра/сек
Цветовое пространство : YUV
Субдискретизация насыщенности : 4:2:0
Битовая глубина : 8 бит
Тип развёртки : Прогрессивная
Бит/(Пиксели*Кадры) : 0.142
Размер потока : 696 Мбайт (93%)
Библиотека кодирования : x264 core 152 r2851kMod ba24899
Настройки программы : cabac=1 / ref=10 / deblock=1:-3:-2 / analyse=0x3:0x133 / me=umh / subme=11 / psy=1 / fade_compensate=0.00 / psy_rd=1.00:0.15 / mixed_ref=1 / me_range=32 / chroma_me=1 / trellis=2 / 8x8dct=1 / cqm=0 / deadzone=21,11 / fast_pskip=0 / chroma_qp_offset=-3 / threads=6 / lookahead_threads=1 / sliced_threads=0 / nr=0 / decimate=0 / interlaced=0 / bluray_compat=0 / constrained_intra=0 / bframes=10 / b_pyramid=2 / b_adapt=2 / b_bias=0 / direct=3 / weightb=1 / open_gop=0 / weightp=2 / keyint=240 / keyint_min=23 / scenecut=40 / intra_refresh=0 / rc_lookahead=40 / rc=2pass / mbtree=1 / bitrate=1087 / ratetol=1.0 / qcomp=0.60 / qpmin=0 / qpmax=69 / qpstep=4 / cplxblur=20.0 / qblur=0.5 / vbv_maxrate=50000 / vbv_bufsize=62500 / nal_hrd=none / filler=0 / ip_ratio=1.40 / aq=3:1.00
Default : Да
Forced : Нет
Аудио
Идентификатор : 2
Формат : AAC
Формат/Информация : Advanced Audio Codec
Профиль формата : LC
Идентификатор кодека : A_AAC
Продолжительность : 1 ч. 29 м.
Битрейт : 76,0 Кбит/сек
Каналы : 2 канала
Расположение каналов : Front: L R
Частота : 48,0 КГц
Частота кадров : 46,875 кадров/сек (1024 SPF)
Метод сжатия : С потерями
Задержка видео : 9 мс.
Размер потока : 48,7 Мбайт (7%)
Язык : Russian
Default : Да
Forced : Нет
Текст #1
Идентификатор : 3
Формат : UTF-8
Идентификатор кодека : S_TEXT/UTF8
Идентификатор кодека/Информация : UTF-8 Plain Text
Продолжительность : 1 ч. 23 м.
Битрейт : 91 бит/сек
ElementCount : 948
Размер потока : 55,7 Кбайт (0%)
Заголовок : TEXT_01_SUB_RUS
Язык : Russian
Default : Нет
Forced : Нет
Текст #2
Идентификатор : 4
Формат : UTF-8
Идентификатор кодека : S_TEXT/UTF8
Идентификатор кодека/Информация : UTF-8 Plain Text
Продолжительность : 1 ч. 23 м.
Битрейт : 100 бит/сек
ElementCount : 983
Размер потока : 61,1 Кбайт (0%)
Заголовок : TEXT_02_SUB_UKR
Язык : Ukrainian
Default : Нет
Forced : Нет
Текст #3
Идентификатор : 5
Формат : UTF-8
Идентификатор кодека : S_TEXT/UTF8
Идентификатор кодека/Информация : UTF-8 Plain Text
Продолжительность : 1 ч. 23 м.
Битрейт : 62 бит/сек
ElementCount : 992
Размер потока : 38,3 Кбайт (0%)
Заголовок : TEXT_03_SUB_ENG
Язык : English
Default : Нет
Forced : Нет
Меню
00:00:00.000 : en:00:00:00.000
00:11:05.706 : en:00:11:05.706
00:21:46.138 : en:00:21:46.138
00:33:04.857 : en:00:33:04.857
00:39:57.186 : en:00:39:57.186
00:48:51.386 : en:00:48:51.386
01:00:58.363 : en:01:00:58.363
01:09:28.163 : en:01:09:28.163
01:19:17.752 : en:01:19:17.752
01:26:01.155 : en:01:26:01.155
01:29:32.950 : en:01:29:32.950

Скриншоты


 GOLD TORRENT! DOWNLOAD TRAFFIC DOES NOT CONSIDER! 
Torrent: Registered [ 2017-12-10 04:17 ]   · 7D6933A02FD9D9C1A6C3D556672D9A789B1780AC

Download .torrent

Download

16 KB

Status: checked
Completed: 0 times
Size: 747 MB
Поделиться:
terms.php
[Profile] [PM]
Display posts:    
Reply to topic

Current time is: 12-May 17:33

All times are UTC + 3



You cannot post new topics in this forum
You cannot reply to topics in this forum
You cannot edit your posts in this forum
You cannot delete your posts in this forum
You cannot vote in polls in this forum
You cannot attach files in this forum
You can download files in this forum