Морозко (Александр Роу) [1964, СССР, сказка, мелодрама, комедия, HDTVRip 720p] Original Rus + Sub Eng

Reply to topic
DL-List and Torrent activity [Update пиров]
Size:  3.78 GB   |    Registered:  3 years 5 months   |    Completed:  0 times

Seeder not seen: Never

 
   
 
 
Author Message

admin ®

Gender: Male

Longevity: 3 years 6 months

Posts: 10385

Post 15-Nov-2017 00:22

[Quote]

Морозко
Страна: СССР
Жанр: фэнтези, мелодрама, комедия
Год выпуска: 1964
Продолжительность: 01:18:50
Перевод: Не требуется
Субтитры: чешские, английские
Оригинальная аудиодорожка: русский
-Режиссер: Александр Роу
-В ролях: Александр Хвыля, Наталья Седых, Эдуард Изотов, Инна Чурикова, Павел Павленко, Вера Алтайская, Георгий Милляр, Галина Борисова, Анатолий Кубацкий, Валентин Брылеев
Описание: Жила-была хорошая добрая девушка Настенька. Злая мачеха заставляла ее работать, не давая продыху. Однажды она решила избавиться от падчерицы и отправила ту замерзать в зимний лес. В этих же краях жил паренек Иван. Он полюбил Настеньку, да вот только был он большим хвастуном, потому лесной колдун и превратил его в медведя.
И Настеньке, и Ивану пришлось пройти через много испытаний, прежде чем соединить свои судьбы. И помог им в этом добрый волшебник - дедушка Морозко.
-Тип релиза: HDTVRip 720p
Контейнер: MKV
-Видео: MPEG4 Video (H264) 986x720p, ~ 6276 kbps, 25 fps, 0.354 Bits/(Pixel*Frame)
-Аудио: 48 kHz, AC3, 3/2 (L,C,R,l,r) + LFE ch, ~448.00 kbps avg

MediaInfo

General
Уникальный идентификатор : 244084110006161795841826305286489015024 (0xB7A0E3BF832D8181B1B41202289882F0)
Полное имя : E:\Morozko.720p..mkv
Формат : Matroska
Версия формата : Version 4 / Version 2
Размер файла : 3.78 GiB
Продолжительность : 1h 18mn
Общий поток : 6 861 Kbps
Название фильма : Morozko (1964)
Дата кодирования : UTC 2016-01-23 00:55:03
Программа кодирования : mkvmerge v7.9.0 ('Birds') 32bit
Библиотека кодирования : libebml v1.3.1 + libmatroska v1.4.2
Video
Идентификатор : 1
Формат : AVC
Формат/Информация : Advanced Video Codec
Профиль формата : High@L4.1
Параметр CABAC формата : Yes
Параметр ReFrames формата : 11 frames
Идентификатор кодека : V_MPEG4/ISO/AVC
Продолжительность : 1h 18mn
Битрейт : 6 276 Kbps
Ширина : 986 pixels
Высота : 720 pixels
Соотношение сторон : 4:3
Режим частоты кадров : Constant
Частота кадров : 25.000 fps
Цветовое пространство : YUV
Субдискретизация насыщенности : 4:2:0
Битовая глубина : 8 bits
Тип развёртки : Progressive
Бит/(Пиксели*Кадры) : 0.354
Размер потока : 3.46 GiB (91%)
Библиотека кодирования : x264 core 148 r2638+53 bb29004 t_mod_Custom [8-bit@all X86_64]
Настройки программы : cabac=1 / ref=11 / deblock=1:-3:-3 / analyse=0x3:0x133 / me=tesa / subme=10 / psy=1 / fade_compensate=0.00 / psy_rd=1.05:0.00 / mixed_ref=1 / me_range=24 / chroma_me=1 / trellis=2 / 8x8dct=1 / cqm=0 / deadzone=21,11 / fast_pskip=0 / chroma_qp_offset=-2 / threads=12 / lookahead_threads=2 / sliced_threads=0 / nr=0 / decimate=0 / interlaced=0 / bluray_compat=0 / constrained_intra=0 / fgo=0 / bframes=8 / b_pyramid=2 / b_adapt=2 / b_bias=0 / direct=3 / weightb=1 / open_gop=0 / weightp=2 / keyint=250 / keyint_min=25 / scenecut=40 / intra_refresh=0 / rc_lookahead=60 / rc=crf / mbtree=0 / crf=16.0000 / qcomp=0.60 / qpmin=0:0:0 / qpmax=69:69:69 / qpstep=4 / vbv_maxrate=62500 / vbv_bufsize=78125 / crf_max=0.0 / nal_hrd=none / filler=0 / ip_ratio=1.40 / pb_ratio=1.30 / aq=3:0.80 / aq-sensitivity=10.00 / aq-factor=1.00:1.00:1.00 / aq2=0 / aq3=0
Язык : Russian
Default : Yes
Forced : No
Audio
Идентификатор : 2
Формат : AC-3
Формат/Информация : Audio Coding 3
Расширение режима : CM (complete main)
Параметр Endianness формата : Big
Идентификатор кодека : A_AC3
Продолжительность : 1h 18mn
Вид битрейта : Constant
Битрейт : 448 Kbps
Каналы : 6 channels
Расположение каналов : Front: L C R, Side: L R, LFE
Частота : 48.0 KHz
Битовая глубина : 16 bits
Метод сжатия : Lossy
Размер потока : 253 MiB (7%)
Язык : Russian
Default : Yes
Forced : No
Text #1
Идентификатор : 3
Формат : UTF-8
Идентификатор кодека : S_TEXT/UTF8
Идентификатор кодека/Информация : UTF-8 Plain Text
Язык : Czech
Default : No
Forced : No
Text #2
Идентификатор : 4
Формат : UTF-8
Идентификатор кодека : S_TEXT/UTF8
Идентификатор кодека/Информация : UTF-8 Plain Text
Язык : English
Default : No
Forced : No
Menu
00:00:00.000 : en:00:00:00.000
00:02:08.160 : en:00:02:08.160
00:08:05.760 : en:00:08:05.760
00:14:04.800 : en:00:14:04.800
00:17:49.920 : en:00:17:49.920
00:26:02.880 : en:00:26:02.880
00:32:10.080 : en:00:32:10.080
00:33:53.760 : en:00:33:53.760
00:37:41.760 : en:00:37:41.760
00:41:10.560 : en:00:41:10.560
00:44:14.400 : en:00:44:14.400
00:48:28.320 : en:00:48:28.320
00:52:59.520 : en:00:52:59.520
00:58:29.280 : en:00:58:29.280
01:05:36.000 : en:01:05:36.000
01:09:48.480 : en:01:09:48.480
01:16:06.720 : en:01:16:06.720

Скриншоты

 GOLD TORRENT! DOWNLOAD TRAFFIC DOES NOT CONSIDER! 
Torrent: Registered [ 2017-11-15 00:22 ]   · 0B6C54D70611E38BF415301078A2FA67F4495028

Download .torrent

Download

19 KB

Status: checked
Completed: 0 times
Size: 3.78 GB
Поделиться:
terms.php
[Profile] [PM]
Display posts:    
Reply to topic

Current time is: 15-Apr 11:16

All times are UTC + 3



You cannot post new topics in this forum
You cannot reply to topics in this forum
You cannot edit your posts in this forum
You cannot delete your posts in this forum
You cannot vote in polls in this forum
You cannot attach files in this forum
You can download files in this forum