Хоббит: Пустошь Смауга / The Hobbit: The Desolation of Smaug (Питер Джексон / Peter Jackson) [2013, США, Новая Зеландия, Фэнтези, приключения, BDRip-AVC] [Расширенная версия] Dub + AVO (Ю. Сербин) + AVO (В. Горчаков) + Sub Rus, Eng + Original Eng

Reply to topic
DL-List and Torrent activity
Size:  6.79 GB   |    Registered:  4 months 21 day   |    Completed:  0 times

Seeder not seen: Never

 
   
 
 
Author Message

admin ®

Gender: Male

Longevity: 3 years 1 month

Posts: 10044

Post 06-Oct-2017 03:48

[Quote]

Хоббит: Пустошь СмаугаThe Hobbit: The Desolation of Smaug«Beyond darkness... beyond desolation... lies the greatest danger of all»Расширенная версия / Extended Edition

Страна: США, Новая Зеландия
Жанр: Фэнтези, приключения
Год выпуска: 2013
Продолжительность: 03:06:34
Перевод: Профессиональный (дублированный) Лицензия BD CEE
Перевод 2: Авторский (одноголосый закадровый) Ю.Сербин
Перевод 3: Авторский (одноголосый закадровый) В.Горчаков
Субтитры: русские,английские
Оригинальная аудиодорожка: английский
Режиссер: Питер Джексон / Peter Jackson
В ролях: Мартин Фриман, Ричард Армитедж, Иэн МакКеллен, Эванджелин Лилли, Орландо Блум, Люк Эванс, Бенедикт Камбербэтч, Ли Пейс, Кен Стотт, Эйдан Тернер...
Описание: Продолжение путешествия хоббита Бильбо Бэггинса, волшебника Гэндальфа и 13 отважных гномов. Их компания обязана завершить своё путешествие к Одинокой горе. Там они должны встретиться с величайшей опасностью из всех — созданием куда более ужасающим, чем все их прошлые противники, которое проверит на прочность не только их мужество, но крепость их дружбы и правильность выбранного пути, — драконом Смаугом.
Доп. информация:
Релиз группы:
Сохранены оригинальные главы как на BD
Качество видео: BDRip-AVC | Хоббит: Пустошь Смауга / The Hobbit: The Desolation of Smaug (2013) [Extended Edition] 1080p BD-Remux|HD Club|
Формат видео: MKV
Видео: 1152x480 (2:40:1), 23,976 fps, 3332 Кbps, 0.251 bit/pixe
Аудио: 48 kHz, AC3 Dolby Digital, 3/2 (L,C,R,l,r) + LFE ch, ~448.00 kbps avg | DUB
Аудио 2: 48 kHz, AC3 Dolby Digital, 3/2 (L,C,R,l,r) + LFE ch, ~448.00 kbps avg | ENG
Аудио 3: 48 kHz, AC3 Dolby Digital, 3/2 (L,C,R,l,r) + LFE ch, 448.00 kbps | AVO отдельно
Аудио 4: 48 kHz, AC3 Dolby Digital, 3/2 (L,C,R,l,r) + LFE ch, 448.00 kbps | AVO отдельно
Формат субтитров: softsub (SRT)
Доп. информация о субтитрах: отключаемые

MediaInfo

General
Unique ID : 176263522547344377137200495103020340438 (0x849B1E9F442ABA15BB7F5F25E0DF94D6)
Complete name : E:\Мои рипы\Хоббит Пустошь Смауга\Хоббит Пустошь Смауга by_IVAN@190282.mkv
Format : Matroska
Format version : Version 4 / Version 2
File size : 5.62 GiB
Duration : 3h 6mn
Overall bit rate : 4 314 Kbps
Encoded date : UTC 2016-03-04 03:09:49
Writing application : mkvmerge v8.8.0 ('Wind at my back') 64bit
Writing library : libebml v1.3.3 + libmatroska v1.4.4
Attachements : cover.jpg
DURATION : 02:54:08.087000000
NUMBER_OF_FRAMES : 2035
NUMBER_OF_BYTES : 49883
_STATISTICS_WRITING_APP : mkvmerge v8.8.0 ('Wind at my back') 64bit
_STATISTICS_WRITING_DATE_UT : 2016-03-04 03:09:49
_STATISTICS_TAGS : BPS DURATION NUMBER_OF_FRAMES NUMBER_OF_BYTES
Video
ID : 1
Format : AVC
Format/Info : Advanced Video Codec
Format profile : High@L4.1
Format settings, CABAC : Yes
Format settings, ReFrames : 13 frames
Codec ID : V_MPEG4/ISO/AVC
Duration : 3h 6mn
Bit rate : 3 332 Kbps
Width : 1 152 pixels
Height : 480 pixels
Display aspect ratio : 2.40:1
Frame rate mode : Constant
Frame rate : 23.976 fps
Color space : YUV
Chroma subsampling : 4:2:0
Bit depth : 8 bits
Scan type : Progressive
Bits/(Pixel*Frame) : 0.251
Stream size : 4.34 GiB (77%)
Writing library : x264 core 144 r2525kMod 40bb568
Encoding settings : cabac=1 / ref=13 / deblock=1:-3:-3 / analyse=0x3:0x113 / me=umh / subme=11 / psy=1 / fade_compensate=0.00 / psy_rd=1.00:0.15 / mixed_ref=1 / me_range=48 / chroma_me=1 / trellis=2 / 8x8dct=1 / cqm=0 / deadzone=21,11 / fast_pskip=0 / chroma_qp_offset=0 / threads=6 / lookahead_threads=6 / sliced_threads=0 / slices=10 / nr=0 / decimate=1 / interlaced=0 / bluray_compat=0 / constrained_intra=0 / fgo=0 / bframes=16 / b_pyramid=2 / b_adapt=2 / b_bias=0 / direct=1 / weightb=1 / open_gop=1 / weightp=2 / keyint=240 / keyint_min=23 / scenecut=40 / intra_refresh=0 / rc_lookahead=40 / rc=crf / mbtree=0 / crf=17.0000 / qcomp=0.60 / qpmin=0 / qpmax=69 / qpstep=4 / vbv_maxrate=50000 / vbv_bufsize=62500 / crf_max=0.0 / nal_hrd=none / filler=0 / ip_ratio=1.40 / pb_ratio=1.30 / aq=1:1.00
Default : Yes
Forced : No
Color range : Limited
Color primaries : BT.709
Transfer characteristics : BT.709
Matrix coefficients : BT.709
Audio #1
ID : 2
Format : AC-3
Format/Info : Audio Coding 3
Mode extension : CM (complete main)
Format settings, Endianness : Big
Codec ID : A_AC3
Duration : 3h 6mn
Bit rate mode : Constant
Bit rate : 448 Kbps
Channel(s) : 6 channels
Channel positions : Front: L C R, Side: L R, LFE
Sampling rate : 48.0 KHz
Compression mode : Lossy
Stream size : 598 MiB (10%)
Title : Dub
Default : Yes
Forced : No
Audio #2
ID : 3
Format : AC-3
Format/Info : Audio Coding 3
Mode extension : CM (complete main)
Format settings, Endianness : Big
Codec ID : A_AC3
Duration : 3h 6mn
Bit rate mode : Constant
Bit rate : 448 Kbps
Channel(s) : 6 channels
Channel positions : Front: L C R, Side: L R, LFE
Sampling rate : 48.0 KHz
Compression mode : Lossy
Stream size : 598 MiB (10%)
Title : Eng
Default : No
Forced : No
Text #1
ID : 4
Format : UTF-8
Codec ID : S_TEXT/UTF8
Codec ID/Info : UTF-8 Plain Text
Title : Rus forsed
Default : Yes
Forced : Yes
Text #2
ID : 5
Format : UTF-8
Codec ID : S_TEXT/UTF8
Codec ID/Info : UTF-8 Plain Text
Title : Rus
Default : No
Forced : No
Text #3
ID : 6
Format : UTF-8
Codec ID : S_TEXT/UTF8
Codec ID/Info : UTF-8 Plain Text
Title : Eng
Language : English
Default : No
Forced : No
Menu
00:00:02.252 : en:Chapter 1
00:10:23.414 : en:Chapter 2
00:12:11.021 : en:Chapter 3
00:14:09.974 : en:Chapter 4
00:19:10.649 : en:Chapter 5
00:22:05.240 : en:Chapter 6
00:23:54.766 : en:Chapter 7
00:26:00.267 : en:Chapter 8
00:33:21.541 : en:Chapter 9
00:44:00.554 : en:Chapter 10
00:48:00.335 : en:Chapter 11
00:50:24.479 : en:Chapter 12
00:53:37.130 : en:Chapter 13
00:58:03.104 : en:Chapter 14
01:02:21.946 : en:Chapter 15
01:11:10.808 : en:Chapter 16
01:15:20.641 : en:Chapter 17
01:19:07.325 : en:Chapter 18
01:22:38.620 : en:Chapter 19
01:23:55.822 : en:Chapter 20
01:25:32.710 : en:Chapter 21
01:29:25.443 : en:Chapter 22
01:31:28.900 : en:Chapter 23
01:36:46.091 : en:Chapter 24
01:38:03.544 : en:Chapter 25
01:44:24.257 : en:Chapter 26
01:47:00.413 : en:Chapter 27
01:49:06.581 : en:Chapter 28
01:50:56.649 : en:Chapter 29
01:52:44.215 : en:Chapter 30
01:53:32.305 : en:Chapter 31
02:00:01.944 : en:Chapter 32
02:07:27.556 : en:Chapter 33
02:09:10.617 : en:Chapter 34
02:11:31.883 : en:Chapter 35
02:15:59.192 : en:Chapter 36
02:22:01.721 : en:Chapter 37
02:23:01.614 : en:Chapter 38
02:24:26.908 : en:Chapter 39
02:25:02.860 : en:Chapter 40
02:28:07.378 : en:Chapter 41
02:32:47.116 : en:Chapter 42
02:34:39.770 : en:Chapter 43
02:36:12.529 : en:Chapter 44
02:36:17.493 : en:Chapter 45
02:37:50.544 : en:Chapter 46
02:39:34.982 : en:Chapter 47
02:42:21.648 : en:Chapter 48
02:48:47.659 : en:Chapter 49
02:54:07.895 : en:Chapter 50
03:06:29.845 : en:Chapter 51

x264 log

VIDEO ENCODING
x264 [info]: frame I:2076 Avg QP:14.97 size: 85830
x264 [info]: frame P:70336 Avg QP:16.60 size: 33635
x264 [info]: frame B:196050 Avg QP:18.61 size: 11398
x264 [info]: consecutive B-frames: 3.8% 7.2% 11.1% 32.6% 16.0% 22.0% 3.0% 1.7% 0.5% 0.3% 0.2% 0.5% 0.1% 0.0% 0.1% 0.4% 0.4%
x264 [info]: kb/s:3414.08
x264 [total]: encoded 268462 frames, 6.75 fps, 3414.08 kb/s, duration 11:03:17.56

Скриншот c названием фильма

Скриншоты


Убедительная просьба пожалуйста кто скачал не бросайте раздачу!!!
 GOLD TORRENT! DOWNLOAD TRAFFIC DOES NOT CONSIDER! 
Torrent: Registered [ 2020-06-06 06:00 ]   · 084B23AB7A274DBB84BE0313163BD40E53BD22CC

Download .torrent

Download

18 KB

Status: checked
Completed: 0 times
Size: 6.79 GB
Поделиться:
terms.php
[Profile] [PM]
Display posts:    
Reply to topic

Current time is: 28-Oct 02:36

All times are UTC + 3



You cannot post new topics in this forum
You cannot reply to topics in this forum
You cannot edit your posts in this forum
You cannot delete your posts in this forum
You cannot vote in polls in this forum
You cannot attach files in this forum
You can download files in this forum