Супер Майк XXL / Magic Mike XXL (Грегори Джейкобс / Gregory Jacobs) [2015, США, Комедия, музыка, драма, BDRip-AVC] Dub + Sub Rus,Eng + Original Eng

Reply to topic
DL-List and Torrent activity
Size:  3.12 GB   |    Registered:  3 years 1 month   |    Completed:  0 times

Seeder not seen: Never

 
   
 
 
Author Message

admin ®

Gender: Male

Longevity: 3 years 2 months

Posts: 10109

Post 06-Oct-2017 03:43

[Quote]

Супер Майк XXLMagic Mike XXL«Back to the grind»

Страна: США
Жанр: Комедия, музыка, драма
Год выпуска: 2015
Продолжительность: 01:55:17
Перевод: Профессиональный (дублированный) Bluray CEE
Субтитры: русские,английские
Оригинальная аудиодорожка: английский
Режиссер: Грегори Джейкобс / Gregory Jacobs
В ролях: Ченнинг Татум, Джо Манганьелло, Мэтт Бомер, Кевин Нэш, Эмбер Хёрд Депп, Элизабет Бэнкс, Адам Родригес, Габриэль Иглесиас, Энди МакДауэлл, Джада Пинкетт Смит
Описание: Прошло три года после того, как Майк на пике своей популярности закончил карьеру стриптизера, а клуб «Короли Тампы» уже почти готов признать свое поражение. Но проделать это в своем стиле: готовясь «зажечь» Мёртл-Бич, они снова разделят сцену с легендарным Супер Майком. Дорога на последнее шоу проходит через Джеконсвилл и Саванну, где Майк и парни повстречают старых знакомых и заведут новых, а также выучат пару неизбитых движений, тряхнув при этом стариной.
Доп. информация:
Релиз группы:
Сохранены оригинальные главы как на Bluray
Качество видео: BDRip-AVC | Супер Майк XXL / Magic Mike XXL (2015) Blu-ray CEE 1080p AVC DD 5.1| HD club
Формат видео: MKV
Видео: 1136x476 (2:40:1), 23,976 fps, 2903 Кbps, 0.224 bit/pixe
Аудио: 48 kHz, AC3 Dolby Digital, 3/2 (L,C,R,l,r) + LFE ch, ~448.00 kbps avg | DUB
Аудио 2: 48 kHz, AC3 Dolby Digital, 3/2 (L,C,R,l,r) + LFE ch, ~448.00 kbps avg | ENG
Формат субтитров: softsub (SRT)
Доп. информация о субтитрах: отключаемые

MediaInfo

General
Unique ID : 211961698468081998644218191531952378760 (0x9F7656953620372282230B525F551388)
Complete name : D:\Мои рипы\Супер Майк XXL\Magic Mike XXL by_IVAN@190282.mkv
Format : Matroska
Format version : Version 4 / Version 2
File size : 3.12 GiB
Duration : 1h 55mn
Overall bit rate : 3 876 Kbps
Encoded date : UTC 2016-02-29 01:00:14
Writing application : mkvmerge v8.8.0 ('Wind at my back') 64bit
Writing library : libebml v1.3.3 + libmatroska v1.4.4
Attachements : cover.jpg
DURATION : 01:54:57.891000000
NUMBER_OF_FRAMES : 1675
NUMBER_OF_BYTES : 64246
_STATISTICS_WRITING_APP : mkvmerge v8.8.0 ('Wind at my back') 64bit
_STATISTICS_WRITING_DATE_UT : 2016-02-29 01:00:14
_STATISTICS_TAGS : BPS DURATION NUMBER_OF_FRAMES NUMBER_OF_BYTES
Video
ID : 1
Format : AVC
Format/Info : Advanced Video Codec
Format profile : High@L4.1
Format settings, CABAC : Yes
Format settings, ReFrames : 11 frames
Codec ID : V_MPEG4/ISO/AVC
Duration : 1h 55mn
Bit rate : 2 903 Kbps
Width : 1 136 pixels
Height : 476 pixels
Display aspect ratio : 2.40:1
Frame rate mode : Constant
Frame rate : 23.976 fps
Color space : YUV
Chroma subsampling : 4:2:0
Bit depth : 8 bits
Scan type : Progressive
Bits/(Pixel*Frame) : 0.224
Stream size : 2.34 GiB (75%)
Title : Magic Mike XXL by_IVAN@190282
Writing library : x264 core 148 r2638kMod 7599210
Encoding settings : cabac=1 / ref=11 / deblock=1:-3:-2 / analyse=0x3:0x133 / me=umh / subme=11 / psy=1 / fade_compensate=0.00 / psy_rd=1.00:0.05 / mixed_ref=1 / me_range=48 / chroma_me=1 / trellis=2 / 8x8dct=1 / cqm=0 / deadzone=21,11 / fast_pskip=0 / chroma_qp_offset=-3 / threads=6 / lookahead_threads=6 / sliced_threads=0 / nr=0 / decimate=1 / interlaced=0 / bluray_compat=0 / constrained_intra=0 / fgo=0 / bframes=16 / b_pyramid=2 / b_adapt=2 / b_bias=0 / direct=3 / weightb=1 / open_gop=0 / weightp=2 / keyint=240 / keyint_min=23 / scenecut=40 / intra_refresh=0 / rc_lookahead=60 / rc=crf / mbtree=0 / crf=17.0000 / qcomp=0.60 / qpmin=0 / qpmax=69 / qpstep=4 / vbv_maxrate=50000 / vbv_bufsize=62500 / crf_max=0.0 / nal_hrd=none / filler=0 / ip_ratio=1.40 / pb_ratio=1.30 / aq=2:1.10
Language : English
Default : Yes
Forced : No
Color range : Limited
Color primaries : BT.709
Transfer characteristics : BT.709
Matrix coefficients : BT.709
DURATION : 01:55:17.161000000
NUMBER_OF_FRAMES : 165846
NUMBER_OF_BYTES : 2574417965
_STATISTICS_WRITING_APP : mkvmerge v8.8.0 ('Wind at my back') 64bit
_STATISTICS_WRITING_DATE_UT : 2016-02-29 01:00:14
_STATISTICS_TAGS : BPS DURATION NUMBER_OF_FRAMES NUMBER_OF_BYTES
Audio #1
ID : 2
Format : AC-3
Format/Info : Audio Coding 3
Mode extension : CM (complete main)
Format settings, Endianness : Big
Codec ID : A_AC3
Duration : 1h 55mn
Bit rate mode : Constant
Bit rate : 448 Kbps
Channel(s) : 6 channels
Channel positions : Front: L C R, Side: L R, LFE
Sampling rate : 48.0 KHz
Compression mode : Lossy
Stream size : 369 MiB (12%)
Title : Dub BD CEE
Default : Yes
Forced : No
Audio #2
ID : 3
Format : AC-3
Format/Info : Audio Coding 3
Mode extension : CM (complete main)
Format settings, Endianness : Big
Codec ID : A_AC3
Duration : 1h 55mn
Bit rate mode : Constant
Bit rate : 448 Kbps
Channel(s) : 6 channels
Channel positions : Front: L C R, Side: L R, LFE
Sampling rate : 48.0 KHz
Compression mode : Lossy
Stream size : 369 MiB (12%)
Title : Eng
Language : English
Default : No
Forced : No
Text #1
ID : 4
Format : UTF-8
Codec ID : S_TEXT/UTF8
Codec ID/Info : UTF-8 Plain Text
Title : Rus forsed
Default : Yes
Forced : Yes
Text #2
ID : 5
Format : UTF-8
Codec ID : S_TEXT/UTF8
Codec ID/Info : UTF-8 Plain Text
Title : Rus
Default : No
Forced : No
Text #3
ID : 6
Format : UTF-8
Codec ID : S_TEXT/UTF8
Codec ID/Info : UTF-8 Plain Text
Title : Eng SDH
Language : English
Default : No
Forced : No
Menu
00:00:00.000 : en:Chapter 1
00:07:13.015 : en:Chapter 2
00:09:48.963 : en:Chapter 3
00:13:42.154 : en:Chapter 4
00:17:40.851 : en:Chapter 5
00:26:06.398 : en:Chapter 6
00:33:33.553 : en:Chapter 7
00:35:46.978 : en:Chapter 8
00:40:59.665 : en:Chapter 9
00:45:20.718 : en:Chapter 10
00:47:46.488 : en:Chapter 11
00:49:36.682 : en:Chapter 12
00:55:17.188 : en:Chapter 13
00:59:24.185 : en:Chapter 14
01:03:31.933 : en:Chapter 15
01:09:03.597 : en:Chapter 16
01:15:04.166 : en:Chapter 17
01:20:50.470 : en:Chapter 18
01:25:05.975 : en:Chapter 19
01:29:29.572 : en:Chapter 20
01:31:53.132 : en:Chapter 21
01:34:18.778 : en:Chapter 22
01:37:09.865 : en:Chapter 23
01:40:30.733 : en:Chapter 24
01:44:10.244 : en:Chapter 25
01:49:02.244 : en:Chapter 26
01:51:01.112 : en:Chapter 27

x264 log

VIDEO ENCODING
x264 [info]: frame I:1077 Avg QP:14.61 size: 81756 PSNR Mean Y:48.54 U:52.79 V:53.29 Avg:49.34 Global:48.36
x264 [info]: frame P:35052 Avg QP:16.49 size: 31801 PSNR Mean Y:46.49 U:49.57 V:50.03 Avg:47.23 Global:46.53
x264 [info]: frame B:129717 Avg QP:18.31 size: 10574 PSNR Mean Y:46.13 U:50.08 V:50.50 Avg:46.92 Global:46.00
x264 [info]: consecutive B-frames: 1.8% 2.3% 5.4% 25.7% 17.6% 31.2% 5.5% 5.8% 1.0% 0.4% 0.3% 1.6% 0.3% 0.2% 0.1% 0.5% 0.3%
x264 [total]: encoded 165846 frames, 3.09 fps, 2977.43 kb/s, duration 14:55:36.63

Скриншот c названием фильма

Скриншоты

Убедительная просьба пожалуйста кто скачал не бросайте раздачу!!!
 GOLD TORRENT! DOWNLOAD TRAFFIC DOES NOT CONSIDER! 
Torrent: Registered [ 2017-10-06 03:43 ]   · A6FC620FBC15C98EA4A21DC5A4F5530C268F834F

Download .torrent

Download

16 KB

Status: checked
Completed: 0 times
Size: 3.12 GB
Поделиться:
terms.php
[Profile] [PM]
Display posts:    
Reply to topic

Current time is: 27-Nov 07:57

All times are UTC + 3



You cannot post new topics in this forum
You cannot reply to topics in this forum
You cannot edit your posts in this forum
You cannot delete your posts in this forum
You cannot vote in polls in this forum
You cannot attach files in this forum
You can download files in this forum