Железный человек / Iron Man (Джон Фавро / Jon Favreau) [2008, США, Фантастика, боевик, триллер, приключения, BDRip-AVC] Dub + Sub Rus,Eng + Original Eng

Reply to topic
DL-List and Torrent activity
Size:  4.68 GB   |    Registered:  3 years   |    Completed:  0 times

Seeder not seen: Never

 
   
 
 
Author Message

admin ®

Gender: Male

Longevity: 3 years

Posts: 10054

Post 06-Oct-2017 03:33

[Quote]

Железный человекIron Man«Героями не рождаются. Героями становятся.»

Страна: США
Жанр: Фантастика, боевик, триллер, приключения
Год выпуска: 2008
Продолжительность: 02:06:01
Перевод: Профессиональный (дублированный) [Blu-ray ]
Субтитры: русские,английские
Оригинальная аудиодорожка: английский
Режиссер: Джон Фавро / Jon Favreau
В ролях: Роберт Дауни мл., Терренс Дэшон Ховард, Джефф Бриджес, Гвинет Пэлтроу, Лесли Бибб, Шон Тоуб, Фаран Таир, Sayed Badreya, Билл Смитрович, Кларк Грегг, Тим Джини, Уилл Лиман, Марко Хэнлиэн, Кевин Фостер, Гаррет Ноэль, Eileen Weisinger, Ахмед Ахмед, Фахим Фазли, Том Морелло, Герард Сандерс, Тим Ригби
Описание: Миллиардер изобретатель Тони Старк попадает в плен к Афганским террористам, которые пытаются заставить его создать оружие массового поражения. В тайне от своих захватчиков Старк конструирует высокотехнологичную киберброню, которая помогает ему сбежать. Однако по возвращению в США он узнаёт, что в совете директоров его фирмы плетётся заговор, чреватый страшными последствиями. Используя своё последнее изобретение, Старк пытается решить проблемы своей компании радикально...
Доп. информация:
Релиз группы:
Качество видео: BDRip-AVC |Железный человек / Iron Man (2008) Blu-ray| HD club
Формат видео: MKV
Видео: 1152x480 (2.40:1), 23,976 fps, 4314 Кbps, 0.325 bit/pixe
Аудио: 48 kHz, AC3 Dolby Digital, 3/2 (L,C,R,l,r) + LFE ch, ~448.00 kbps avg DUB
Аудио 2: 48 kHz, AC3 Dolby Digital, 3/2 (L,C,R,l,r) + LFE ch, ~448.00 kbps avg ENG
Формат субтитров: softsub (SRT)
Доп. информация о субтитрах: отключаемые

MediaInfo

General
Unique ID : 183024787795095932553272409481391522875 (0x89B14ABC725F5B5F85520743F04E443B)
Complete name : E:\Мои рипы\Железный человек\Железный человек by_IVAN@190282.mkv
Format : Matroska
Format version : Version 4 / Version 2
File size : 4.68 GiB
Duration : 2h 6mn
Overall bit rate : 5 316 Kbps
Encoded date : UTC 2014-12-19 16:47:04
Writing application : mkvmerge v7.0.0 ('Where We Going') 64bit built on Jun 9 2014 15:16:27
Writing library : libebml v1.3.0 + libmatroska v1.4.1
DURATION : 02:04:23.299000000
NUMBER_OF_FRAMES : 1305
NUMBER_OF_BYTES : 55042
_STATISTICS_WRITING_APP : mkvmerge v7.0.0 ('Where We Going') 64bit built on Jun 9 2014 15:16:27
_STATISTICS_WRITING_DATE_UTC : 2014-12-19 16:47:04
_STATISTICS_TAGS : BPS DURATION NUMBER_OF_FRAMES NUMBER_OF_BYTES
Video
ID : 1
Format : AVC
Format/Info : Advanced Video Codec
Format profile : High@L4.1
Format settings, CABAC : Yes
Format settings, ReFrames : 13 frames
Codec ID : V_MPEG4/ISO/AVC
Duration : 2h 6mn
Bit rate : 4 314 Kbps
Width : 1 152 pixels
Height : 480 pixels
Display aspect ratio : 2.40:1
Frame rate mode : Constant
Frame rate : 23.976 fps
Color space : YUV
Chroma subsampling : 4:2:0
Bit depth : 8 bits
Scan type : Progressive
Bits/(Pixel*Frame) : 0.325
Stream size : 3.80 GiB (81%)
Writing library : x264 core 142 r2491kMod 24e4fed
Encoding settings : cabac=1 / ref=13 / deblock=1:-3:-3 / analyse=0x3:0x113 / me=umh / subme=11 / psy=1 / fade_compensate=0.00 / psy_rd=1.00:0.15 / mixed_ref=1 / me_range=48 / chroma_me=1 / trellis=2 / 8x8dct=1 / cqm=0 / deadzone=21,11 / fast_pskip=0 / chroma_qp_offset=0 / threads=6 / lookahead_threads=6 / sliced_threads=0 / slices=10 / nr=0 / decimate=1 / interlaced=0 / bluray_compat=0 / constrained_intra=0 / fgo=0 / bframes=16 / b_pyramid=2 / b_adapt=2 / b_bias=0 / direct=1 / weightb=1 / open_gop=1 / weightp=2 / keyint=240 / keyint_min=23 / scenecut=40 / intra_refresh=0 / rc_lookahead=40 / rc=crf / mbtree=0 / crf=17.0000 / qcomp=0.60 / qpmin=0 / qpmax=69 / qpstep=4 / vbv_maxrate=50000 / vbv_bufsize=62500 / crf_max=0.0 / nal_hrd=none / filler=0 / ip_ratio=1.40 / pb_ratio=1.30 / aq=1:1.00
Default : Yes
Forced : No
Color primaries : BT.709
Transfer characteristics : BT.709
Matrix coefficients : BT.709
Audio #1
ID : 2
Format : AC-3
Format/Info : Audio Coding 3
Mode extension : CM (complete main)
Format settings, Endianness : Big
Codec ID : A_AC3
Duration : 2h 6mn
Bit rate mode : Constant
Bit rate : 448 Kbps
Channel(s) : 6 channels
Channel positions : Front: L C R, Side: L R, LFE
Sampling rate : 48.0 KHz
Bit depth : 16 bits
Compression mode : Lossy
Stream size : 404 MiB (8%)
Title : Dub
Default : Yes
Forced : No
Audio #2
ID : 3
Format : AC-3
Format/Info : Audio Coding 3
Mode extension : CM (complete main)
Format settings, Endianness : Big
Codec ID : A_AC3
Duration : 2h 6mn
Bit rate mode : Constant
Bit rate : 448 Kbps
Channel(s) : 6 channels
Channel positions : Front: L C R, Side: L R, LFE
Sampling rate : 48.0 KHz
Bit depth : 16 bits
Compression mode : Lossy
Stream size : 404 MiB (8%)
Title : Eng
Default : No
Forced : No
Text #1
ID : 4
Format : UTF-8
Codec ID : S_TEXT/UTF8
Codec ID/Info : UTF-8 Plain Text
Title : Rus
Default : Yes
Forced : No
Text #2
ID : 5
Format : UTF-8
Codec ID : S_TEXT/UTF8
Codec ID/Info : UTF-8 Plain Text
Title : Eng
Default : No
Forced : No

x264 log

VIDEO ENCODING
x264 [info]: frame I:1319 Avg QP:14.82 size: 90039
x264 [info]: frame P:41511 Avg QP:16.23 size: 39670
x264 [info]: frame B:138470 Avg QP:18.71 size: 17391
x264 [info]: consecutive B-frames: 3.0% 3.8% 11.5% 16.9% 20.1% 27.6% 7.0% 2.0% 2.2% 2.1% 1.0% 0.5% 0.7% 0.7% 0.3% 0.1% 0.3%
x264 [info]: kb/s:4415.59
x264 [total]: encoded 181300 frames, 6.50 fps, 4415.59 kb/s, duration 7:44:31.78

Скриншот c названием фильма

Скриншоты


Убедительная просьба пожалуйста кто скачал не бросайте раздачу!!!
 GOLD TORRENT! DOWNLOAD TRAFFIC DOES NOT CONSIDER! 
Torrent: Registered [ 2017-10-06 03:33 ]   · 8B420B5AFB23E975517BA372DCA911FF4E6235FF

Download .torrent

Download

12 KB

Status: checked
Completed: 0 times
Size: 4.68 GB
Поделиться:
terms.php
[Profile] [PM]
Display posts:    
Reply to topic

Current time is: 23-Oct 06:00

All times are UTC + 3



You cannot post new topics in this forum
You cannot reply to topics in this forum
You cannot edit your posts in this forum
You cannot delete your posts in this forum
You cannot vote in polls in this forum
You cannot attach files in this forum
You can download files in this forum