Спецназ: В осаде / S.W.A.T.: Under Siege (Тони Гиглио / Tony Giglio) [2017, США, Боевик, BDRip-AVC] MVO (Bluray CEE) + Sub Rus, Eng + Original Eng

Reply to topic
DL-List and Torrent activity
Size:  2.12 GB   |    Registered:  3 months 21 day   |    Completed:  0 times

Seeder not seen: Never

 
   
 
 
Author Message

admin ®

Gender: Male

Longevity: 3 years

Posts: 10017

Post 06-Oct-2017 03:13

[Quote]

Спецназ: В осадеS.W.A.T.: Under Siege

Страна: США
Жанр: Боевик
Год выпуска: 2017
Продолжительность: 01:29:00
Перевод: Профессиональный (многоголосый закадровый) Blu-ray CEE
Субтитры: русские,английские, английские (SDH), английские (SDH Colored)
Оригинальная аудиодорожка: английский
Режиссер: Тони Гиглио / Tony Giglio
В ролях: Эдрианн Палики, Майкл Джей Уайт, Тай Олссон, Паскаль Хаттон, Сэм Джагер, Моник Гэндертон, Оливия Ченг, Кира Загорски, Майк Допуд, Мэттью Мэрсден
Описание: В осаде рассказывает о совместной операции отдела по борьбе с наркотраффиком и спецназа, направленной на устранение членов картеля. Операция заканчивается перестрелкой. Агент спецназа Тревис Холл берёт в заложники загадочного человека с татуировкой в виде скорпиона. На отряд спецназа случаются одно за другим вооружённые нападения с целью освободить пленника, известного по кличке Скорпион из-за характерной татуировки на спине. Позже Тревис узнаёт, что их заложник — двойной правительственный агент, внедрённый в картель.
Доп. информация:
Релиз группы:
Сохранены оригинальные главы как на Bluray
Качество видео: BDRip-AVC | SWAT_UNDER_SIEGE_HDCLUB |
Формат видео: MKV
Видео: 1152x648 (16:9), 23,976 fps, 2444 Кbps, 0.137 bit/pixe
Аудио: 48 kHz, AC3 Dolby Digital, 3/2 (L,C,R,l,r) + LFE ch, ~448.00 kbps avg DUB
Аудио 2: 48 kHz, AC3 Dolby Digital, 3/2 (L,C,R,l,r) + LFE ch, ~448.00 kbps avg ENG
Формат субтитров: softsub (SRT)
Доп. информация о субтитрах: отключаемые srt

MediaInfo

General
Unique ID : 234584387148015278597445053751764443616 (0xB07B4F3FF0D7DEF4B0DCCD8DE8D3E1E0)
Complete name : F:\Мои рипы\Спецназ В осаде\S.W.A.T. Under Siege by_IVAN@190282.mkv
Format : Matroska
Format version : Version 4 / Version 2
File size : 2.12 GiB
Duration : 1h 29mn
Overall bit rate : 3 408 Kbps
Movie name : S.W.A.T. Under Siege by_IVAN@190282
Encoded date : UTC 2017-07-28 13:35:11
Writing application : mkvmerge v14.0.0 ('Flow') 64bit
Writing library : libebml v1.3.4 + libmatroska v1.4.5
DURATION : 01:28:32.432000000
NUMBER_OF_FRAMES : 1128
NUMBER_OF_BYTES : 44896
_STATISTICS_WRITING_APP : mkvmerge v14.0.0 ('Flow') 64bit
_STATISTICS_WRITING_DATE_UTC : 2017-07-28 13:35:11
_STATISTICS_TAGS : BPS DURATION NUMBER_OF_FRAMES NUMBER_OF_BYTES
Attachment : Yes
Video
ID : 1
Format : AVC
Format/Info : Advanced Video Codec
Format profile : High@L4.1
Format settings, CABAC : Yes
Format settings, ReFrames : 11 frames
Codec ID : V_MPEG4/ISO/AVC
Duration : 1h 29mn
Bit rate : 2 444 Kbps
Width : 1 152 pixels
Height : 648 pixels
Display aspect ratio : 16:9
Frame rate mode : Constant
Frame rate : 23.976 fps
Color space : YUV
Chroma subsampling : 4:2:0
Bit depth : 8 bits
Scan type : Progressive
Bits/(Pixel*Frame) : 0.137
Stream size : 1.52 GiB (72%)
Title : S.W.A.T. Under Siege by_IVAN@190282
Writing library : x264 core 152 r2851kMod ba24899
Encoding settings : cabac=1 / ref=11 / deblock=1:-3:-3 / analyse=0x3:0x113 / me=umh / subme=11 / psy=1 / fade_compensate=0.00 / psy_rd=1.00:0.05 / mixed_ref=1 / me_range=48 / chroma_me=1 / trellis=2 / 8x8dct=1 / cqm=0 / deadzone=21,11 / fast_pskip=0 / chroma_qp_offset=-3 / threads=6 / lookahead_threads=6 / sliced_threads=0 / nr=0 / decimate=1 / interlaced=0 / bluray_compat=0 / constrained_intra=0 / bframes=16 / b_pyramid=2 / b_adapt=2 / b_bias=0 / direct=3 / weightb=1 / open_gop=0 / weightp=2 / keyint=240 / keyint_min=23 / scenecut=40 / intra_refresh=0 / rc_lookahead=60 / rc=crf / mbtree=1 / crf=16.3000 / qcomp=0.60 / qpmin=0 / qpmax=69 / qpstep=4 / vbv_maxrate=50000 / vbv_bufsize=62500 / crf_max=0.0 / nal_hrd=none / filler=0 / ip_ratio=1.40 / aq=3:0.70
Language : English
Default : Yes
Forced : No
Color primaries : BT.709
Transfer characteristics : BT.709
Matrix coefficients : BT.709
DURATION : 01:29:00.252000000
NUMBER_OF_FRAMES : 128038
NUMBER_OF_BYTES : 1674724121
_STATISTICS_WRITING_APP : mkvmerge v14.0.0 ('Flow') 64bit
_STATISTICS_WRITING_DATE_UTC : 2017-07-28 13:35:11
_STATISTICS_TAGS : BPS DURATION NUMBER_OF_FRAMES NUMBER_OF_BYTES
Audio #1
ID : 2
Format : AC-3
Format/Info : Audio Coding 3
Mode extension : CM (complete main)
Format settings, Endianness : Big
Codec ID : A_AC3
Duration : 1h 29mn
Bit rate mode : Constant
Bit rate : 448 Kbps
Channel(s) : 6 channels
Channel positions : Front: L C R, Side: L R, LFE
Sampling rate : 48.0 KHz
Bit depth : 16 bits
Compression mode : Lossy
Stream size : 285 MiB (13%)
Title : Mvo Bluray CEE
Language : Russian
Default : Yes
Forced : No
Audio #2
ID : 3
Format : AC-3
Format/Info : Audio Coding 3
Mode extension : CM (complete main)
Format settings, Endianness : Big
Codec ID : A_AC3
Duration : 1h 29mn
Bit rate mode : Constant
Bit rate : 448 Kbps
Channel(s) : 6 channels
Channel positions : Front: L C R, Side: L R, LFE
Sampling rate : 48.0 KHz
Bit depth : 16 bits
Compression mode : Lossy
Stream size : 285 MiB (13%)
Title : Eng
Language : English
Default : No
Forced : No
Text #1
ID : 4
Format : UTF-8
Codec ID : S_TEXT/UTF8
Codec ID/Info : UTF-8 Plain Text
Title : Rus
Language : Russian
Default : No
Forced : No
Text #2
ID : 5
Format : UTF-8
Codec ID : S_TEXT/UTF8
Codec ID/Info : UTF-8 Plain Text
Title : Eng
Language : English
Default : No
Forced : No
Text #3
ID : 6
Format : UTF-8
Codec ID : S_TEXT/UTF8
Codec ID/Info : UTF-8 Plain Text
Title : Eng SDH
Language : English
Default : No
Forced : No
Text #4
ID : 7
Format : UTF-8
Codec ID : S_TEXT/UTF8
Codec ID/Info : UTF-8 Plain Text
Title : Eng SDH Colored
Language : English
Default : No
Forced : No
Menu
00:00:00.000 : en:00:00:00.000
00:05:33.041 : en:00:05:33.041
00:12:39.592 : en:00:12:39.592
00:17:26.003 : en:00:17:26.003
00:22:56.917 : en:00:22:56.917
00:28:27.164 : en:00:28:27.164
00:34:30.902 : en:00:34:30.902
00:39:03.508 : en:00:39:03.508
00:45:07.663 : en:00:45:07.663
00:50:48.629 : en:00:50:48.629
00:56:50.907 : en:00:56:50.907
01:02:46.763 : en:01:02:46.763
01:07:09.317 : en:01:07:09.317
01:12:15.540 : en:01:12:15.540
01:16:50.606 : en:01:16:50.606
01:23:16.992 : en:01:23:16.992

x264 log

VIDEO ENCODING
x264 [info]: frame I:1117 Avg QP:14.78 size:110090 PSNR Mean Y:50.58 U:52.97 V:53.01 Avg:51.23 Global:51.03
x264 [info]: frame P:30950 Avg QP:17.30 size: 26785 PSNR Mean Y:48.08 U:50.87 V:51.00 Avg:48.81 Global:48.39
x264 [info]: frame B:95971 Avg QP:19.74 size: 7531 PSNR Mean Y:47.46 U:50.68 V:50.81 Avg:48.28 Global:47.84
x264 [info]: consecutive B-frames: 4.3% 4.5% 8.6% 25.5% 15.4% 23.8% 6.0% 8.6% 1.4% 0.4% 0.3% 1.0% 0.1% 0.1% 0.0% 0.0% 0.0%
x264 [total]: encoded 128038 frames, 1.59 fps, 2508.83 kb/s, duration 22:21:13.55

Скриншот c названием фильма

Скриншоты

Убедительная просьба пожалуйста кто скачал не бросайте раздачу!!!
 GOLD TORRENT! DOWNLOAD TRAFFIC DOES NOT CONSIDER! 
Torrent: Registered [ 2020-06-07 03:23 ]   · 55DEE6100E8ED75880F25570A9AF8D3C99A80954

Download .torrent

Download

11 KB

Status: checked
Completed: 0 times
Size: 2.12 GB
Поделиться:
terms.php
[Profile] [PM]
Display posts:    
Reply to topic

Current time is: 28-Sep 07:36

All times are UTC + 3



You cannot post new topics in this forum
You cannot reply to topics in this forum
You cannot edit your posts in this forum
You cannot delete your posts in this forum
You cannot vote in polls in this forum
You cannot attach files in this forum
You can download files in this forum