Почти семнадцать / The Edge of Seventeen (Келли Фремон Крэйг / Kelly Fremon Craig) [2016, США, Китай, Драма, комедия, BDRip-AVC] Dub + Sub Rus, Eng + Original Eng

Reply to topic
DL-List and Torrent activity
Size:  2.43 GB   |    Registered:  2 years 11 months   |    Completed:  0 times

Seeder not seen: Never

Leechers:  2  [  0 KB/s  ]   Show peers in full details
 
   
 
 
Author Message

admin ®

Gender: Male

Longevity: 3 years

Posts: 10019

Post 05-Oct-2017 07:43

[Quote]

Почти семнадцатьThe Edge of Seventeen«You're only young once... is it over yet?»

Страна: США, Китай
Жанр: Драма, комедия
Год выпуска: 2016
Продолжительность: 01:45:11
Перевод: Профессиональный (дублированный) Blu-ray EUR
Субтитры: русские форсированные ,русские полные, английские
Оригинальная аудиодорожка: английский
Режиссер: Келли Фремон Крэйг / Kelly Fremon Craig
В ролях: Хейли Стайнфелд, Хейли Лу Ричардсон, Блейк Дженнер, Кира Седжвик, Вуди Харрельсон, Хейден Сзето, Александр Кэлверт, Эрик Кинлисайд, Неста Купер, Дэниэл Бэйкон
Описание: С самого детства Надин считала, что её старшему брату всё даётся легко и просто, а сама она росла врединой и даже не могла завести друзей в начальной школе. Но однажды девочка Криста захотела дружить с ней, и они стали лучшими подругами. В свои 17 лет Надин всё так же ненавидит брата, и когда Криста начинает с ним встречаться, мир переворачивается с ног на голову.
Доп. информация:
Релиз группы:
Сохранены оригинальные главы как на Bluray
Качество видео: BDRip-AVC | T_EDGE_O_17_EUR_BLUEBIRD |
Формат видео: MKV
Видео: 1152x622 (1:85:1), 23,976 fps, 2348 Кbps, 0.137 bit/pixe
Аудио: 48 kHz, AC3 Dolby Digital, 3/2 (L,C,R,l,r) + LFE ch, ~448.00 kbps avg DUB
Аудио 2: 48 kHz, AC3 Dolby Digital, 3/2 (L,C,R,l,r) + LFE ch, ~448.00 kbps avg ENG
Формат субтитров: softsub (SRT)
Доп. информация о субтитрах: оключаемые srt

MediaInfo

General
Unique ID : 197201469997949248486190280045410454285 (0x945B9F2222CD2B25907A0DDB82610B0D)
Complete name : F:\Мои рипы\Почти 17\The Edge of Seventeen by_IVAN@190282.mkv
Format : Matroska
Format version : Version 4 / Version 2
File size : 2.43 GiB
Duration : 1h 45mn
Overall bit rate : 3 310 Kbps
Movie name : The Edge of Seventeen by_IVAN@190282
Encoded date : UTC 2017-07-30 21:46:47
Writing application : mkvmerge v14.0.0 ('Flow') 64bit
Writing library : libebml v1.3.4 + libmatroska v1.4.5
DURATION : 01:36:36.210000000
NUMBER_OF_FRAMES : 1335
NUMBER_OF_BYTES : 42136
_STATISTICS_WRITING_APP : mkvmerge v14.0.0 ('Flow') 64bit
_STATISTICS_WRITING_DATE_UTC : 2017-07-30 21:46:47
_STATISTICS_TAGS : BPS DURATION NUMBER_OF_FRAMES NUMBER_OF_BYTES
Attachment : Yes
Video
ID : 1
Format : AVC
Format/Info : Advanced Video Codec
Format profile : High@L4.1
Format settings, CABAC : Yes
Format settings, ReFrames : 11 frames
Codec ID : V_MPEG4/ISO/AVC
Duration : 1h 45mn
Bit rate : 2 348 Kbps
Width : 1 152 pixels
Height : 622 pixels
Display aspect ratio : 1.85:1
Frame rate mode : Constant
Frame rate : 23.976 fps
Color space : YUV
Chroma subsampling : 4:2:0
Bit depth : 8 bits
Scan type : Progressive
Bits/(Pixel*Frame) : 0.137
Stream size : 1.73 GiB (71%)
Title : The Edge of Seventeen by_IVAN@190282
Writing library : x264 core 152 r2851kMod ba24899
Encoding settings : cabac=1 / ref=11 / deblock=1:-3:-3 / analyse=0x3:0x113 / me=umh / subme=11 / psy=1 / fade_compensate=0.00 / psy_rd=1.00:0.05 / mixed_ref=1 / me_range=48 / chroma_me=1 / trellis=2 / 8x8dct=1 / cqm=0 / deadzone=21,11 / fast_pskip=0 / chroma_qp_offset=-3 / threads=6 / lookahead_threads=6 / sliced_threads=0 / nr=0 / decimate=1 / interlaced=0 / bluray_compat=0 / constrained_intra=0 / bframes=16 / b_pyramid=2 / b_adapt=2 / b_bias=0 / direct=3 / weightb=1 / open_gop=0 / weightp=2 / keyint=240 / keyint_min=23 / scenecut=40 / intra_refresh=0 / rc_lookahead=60 / rc=crf / mbtree=1 / crf=16.7000 / qcomp=0.60 / qpmin=0 / qpmax=69 / qpstep=4 / vbv_maxrate=50000 / vbv_bufsize=62500 / crf_max=0.0 / nal_hrd=none / filler=0 / ip_ratio=1.40 / aq=3:0.70
Language : English
Default : Yes
Forced : No
Color primaries : BT.709
Transfer characteristics : BT.709
Matrix coefficients : BT.709
DURATION : 01:45:11.305000000
NUMBER_OF_FRAMES : 151320
NUMBER_OF_BYTES : 1902129892
_STATISTICS_WRITING_APP : mkvmerge v14.0.0 ('Flow') 64bit
_STATISTICS_WRITING_DATE_UTC : 2017-07-30 21:46:47
_STATISTICS_TAGS : BPS DURATION NUMBER_OF_FRAMES NUMBER_OF_BYTES
Audio #1
ID : 2
Format : AC-3
Format/Info : Audio Coding 3
Mode extension : CM (complete main)
Format settings, Endianness : Big
Codec ID : A_AC3
Duration : 1h 45mn
Bit rate mode : Constant
Bit rate : 448 Kbps
Channel(s) : 6 channels
Channel positions : Front: L C R, Side: L R, LFE
Sampling rate : 48.0 KHz
Bit depth : 16 bits
Compression mode : Lossy
Stream size : 337 MiB (14%)
Title : Mvo Bluray EUR
Language : Russian
Default : Yes
Forced : No
Audio #2
ID : 3
Format : AC-3
Format/Info : Audio Coding 3
Mode extension : CM (complete main)
Format settings, Endianness : Big
Codec ID : A_AC3
Duration : 1h 45mn
Bit rate mode : Constant
Bit rate : 448 Kbps
Channel(s) : 6 channels
Channel positions : Front: L C R, Side: L R, LFE
Sampling rate : 48.0 KHz
Bit depth : 16 bits
Compression mode : Lossy
Stream size : 337 MiB (14%)
Title : Eng
Language : English
Default : No
Forced : No
Text #1
ID : 4
Format : UTF-8
Codec ID : S_TEXT/UTF8
Codec ID/Info : UTF-8 Plain Text
Title : Rus forsed
Language : Russian
Default : Yes
Forced : No
Text #2
ID : 5
Format : UTF-8
Codec ID : S_TEXT/UTF8
Codec ID/Info : UTF-8 Plain Text
Title : Rus
Language : Russian
Default : No
Forced : No
Text #3
ID : 6
Format : UTF-8
Codec ID : S_TEXT/UTF8
Codec ID/Info : UTF-8 Plain Text
Title : Eng
Language : English
Default : No
Forced : No
Menu
00:00:00.000 : en:00:00:00.000
00:03:47.018 : en:00:03:47.018
00:07:41.419 : en:00:07:41.419
00:10:02.644 : en:00:10:02.644
00:18:46.292 : en:00:18:46.292
00:23:21.483 : en:00:23:21.483
00:26:42.434 : en:00:26:42.434
00:32:06.716 : en:00:32:06.716
00:36:51.501 : en:00:36:51.501
00:43:17.553 : en:00:43:17.553
00:48:21.190 : en:00:48:21.190
00:53:15.192 : en:00:53:15.192
01:00:29.918 : en:01:00:29.918
01:07:55.321 : en:01:07:55.321
01:12:46.988 : en:01:12:46.988
01:14:56.617 : en:01:14:56.617
01:21:48.779 : en:01:21:48.779
01:26:20.300 : en:01:26:20.300
01:30:59.162 : en:01:30:59.162
01:38:58.057 : en:01:38:58.057

x264 log

VIDEO ENCODING
x264 [info]: frame I:1241 Avg QP:14.23 size:125204 PSNR Mean Y:50.06 U:52.78 V:52.98 Avg:50.81 Global:50.56
x264 [info]: frame P:32100 Avg QP:16.82 size: 28758 PSNR Mean Y:47.44 U:50.85 V:50.99 Avg:48.30 Global:47.76
x264 [info]: frame B:117979 Avg QP:19.90 size: 6981 PSNR Mean Y:46.57 U:50.34 V:50.58 Avg:47.51 Global:47.02
x264 [info]: consecutive B-frames: 1.8% 3.6% 5.2% 27.1% 13.4% 26.2% 6.1% 13.2% 1.1% 0.3% 0.2% 1.6% 0.1% 0.0% 0.0% 0.1% 0.0%
x264 [total]: encoded 151320 frames, 1.78 fps, 2411.08 kb/s, duration 23:39:32.04

Скриншот c названием фильма

Скриншоты

Сравнения

Source by_IVAN@190282 SOURCE VS by_IVAN@190282 http://screenshotcomparison.com/comparison/217395/picture:4
Убедительная просьба пожалуйста кто скачал не бросайте раздачу!!!
 GOLD TORRENT! DOWNLOAD TRAFFIC DOES NOT CONSIDER! 
Torrent: Registered [ 2017-10-05 07:43 ]   · E8A5636BFBA5C3A9D8A70FF5247422471C1E66FB

Download .torrent

Download

13 KB

Status: checked
Completed: 0 times
Size: 2.43 GB
Поделиться:
terms.php
[Profile] [PM]
Display posts:    
Reply to topic

Current time is: 27-Sep 16:57

All times are UTC + 3



You cannot post new topics in this forum
You cannot reply to topics in this forum
You cannot edit your posts in this forum
You cannot delete your posts in this forum
You cannot vote in polls in this forum
You cannot attach files in this forum
You can download files in this forum