Троя / Troy (Вольфганг Петерсен / Wolfgang Petersen) [2004, США, Великобритания, Мальта, Боевик, драма, мелодрама, исторический, BDRip-AVC] Dub (BD) + MVO (Киномания) + DVO (Гланц и Королева) + 2x AVO (Гаврилов, Рябов) + Sub Rus, Eng + Original Eng

Reply to topic
DL-List and Torrent activity
Size:  8.72 GB   |    Registered:  3 years   |    Completed:  0 times

Seeder not seen: Never

 
   
 
 
Author Message

admin ®

Gender: Male

Longevity: 3 years 1 month

Posts: 10044

Post 05-Oct-2017 07:02

[Quote]

ТрояTroyРежиссерская версия / Director's Сut«For Troy»

Страна: США, Великобритания, Мальта
Жанр: Боевик, драма, мелодрама, исторический
Год выпуска: 2004
Продолжительность: 03:16:03
Перевод: Профессиональный (дублированный) BD со вставками MVO на расширенные места
Перевод 2: Профессиональный (многоголосый закадровый) Киномания
Перевод 3: Профессиональный (двухголосый закадровый) Гланц и Королева
Перевод 4: Авторский (одноголосый закадровый) А.Гаврилов
Перевод 5: Авторский (одноголосый закадровый) С.Рябов
Субтитры: русские,английские
Оригинальная аудиодорожка: английский
Режиссер: Вольфганг Петерсен / Wolfgang Petersen
В ролях: Брэд Питт, Эрик Бана, Орландо Блум, Брайан Кокс, Дайан Крюгер, Брендан Глисон, Шон Бин, Джули Кристи, Питер О’Тул, Роуз Бирн, Винсент Риган, Саффрон Берроуз, Джулиан Гловер, Гаррет Хедлунд
Описание: 1193 год до нашей эры. Наследник престола Трои Парис украл прекрасную Елену, жену царя Спарты Менелая. За честь Менелая вступается его брат — царь Агамемнон. Его армия под предводительством Ахиллеса подошла к Трое и взяла город в кровавую осаду, длившуюся долгих десять лет… Два мира будут воевать за честь и власть. Тысячи умрут за славу. И за любовь нация сгорит дотла.
Доп. информация:
Релиз группы:
Сохранены оригинальные главы как на Bluray
Качество видео: BDRip-AVC | Троя / Troy (2004) 1080p BD-Remux| Kinozal |
Формат видео: MKV
Видео: 1190x492 (2:40:1), 23,976 fps, 3582 Кbps, 0.255 bit/pixe
Аудио: 48 kHz, AC3 Dolby Digital, 3/2 (L,C,R,l,r) + LFE ch, ~448.00 kbps avg DUB
Аудио 2: 48 kHz, AC3 Dolby Digital, 3/2 (L,C,R,l,r) + LFE ch, ~448.00 kbps avg MVO
Аудио 3: 48 kHz, AC3 Dolby Digital, 3/2 (L,C,R,l,r) + LFE ch, ~448.00 kbps avg DVO отдельно
Аудио 4: 48 kHz, AC3 Dolby Digital, 3/2 (L,C,R,l,r) + LFE ch, ~448.00 kbps avg AVO
отдельно
Аудио 5:48 kHz, AC3 Dolby Digital, 3/2 (L,C,R,l,r) + LFE ch, ~448.00 kbps avg AVO
отдельно
Аудио 6:48 kHz, AC3 Dolby Digital, 3/2 (L,C,R,l,r) + LFE ch, ~448.00 kbps avg ENG
Формат субтитров: softsub (SRT)
Доп. информация о субтитрах: отключаемые

MediaInfo

General
Unique ID : 236567941231435600869576632162220637426 (0xB1F9540441F38D6DA3CBCE2FA3ADFCF2)
Complete name : E:\Мои рипы\Троя\Troy by_IVAN@190282.mkv
Format : Matroska
Format version : Version 4 / Version 2
File size : 6.88 GiB
Duration : 3h 16mn
Overall bit rate : 5 026 Kbps
Movie name : Troy by_IVAN@190282
Encoded date : UTC 2016-03-05 00:42:07
Writing application : mkvmerge v8.8.0 ('Wind at my back') 64bit
Writing library : libebml v1.3.3 + libmatroska v1.4.4
Attachements : cover.jpg
DURATION : 03:13:05.825000000
NUMBER_OF_FRAMES : 1377
NUMBER_OF_BYTES : 44689
_STATISTICS_WRITING_APP : mkvmerge v8.8.0 ('Wind at my back') 64bit
_STATISTICS_WRITING_DATE_UT : 2016-03-05 00:42:07
_STATISTICS_TAGS : BPS DURATION NUMBER_OF_FRAMES NUMBER_OF_BYTES
Video
ID : 1
Format : AVC
Format/Info : Advanced Video Codec
Format profile : High@L4.1
Format settings, CABAC : Yes
Format settings, ReFrames : 14 frames
Codec ID : V_MPEG4/ISO/AVC
Duration : 3h 16mn
Bit rate : 3 582 Kbps
Width : 1 190 pixels
Height : 492 pixels
Display aspect ratio : 2.40:1
Frame rate mode : Constant
Frame rate : 23.976 fps
Color space : YUV
Chroma subsampling : 4:2:0
Bit depth : 8 bits
Scan type : Progressive
Bits/(Pixel*Frame) : 0.255
Stream size : 4.91 GiB (71%)
Title : Troy by_IVAN@190282
Writing library : x264 core 146 r2538kMod 121396c
Encoding settings : cabac=1 / ref=14 / deblock=1:-3:-3 / analyse=0x3:0x113 / me=umh / subme=11 / psy=1 / fade_compensate=0.00 / psy_rd=1.00:0.15 / mixed_ref=1 / me_range=48 / chroma_me=1 / trellis=2 / 8x8dct=1 / cqm=0 / deadzone=21,11 / fast_pskip=0 / chroma_qp_offset=0 / threads=6 / lookahead_threads=6 / sliced_threads=0 / slices=10 / nr=0 / decimate=1 / interlaced=0 / bluray_compat=0 / constrained_intra=0 / fgo=0 / bframes=16 / b_pyramid=2 / b_adapt=2 / b_bias=0 / direct=3 / weightb=1 / open_gop=1 / weightp=2 / keyint=240 / keyint_min=23 / scenecut=40 / intra_refresh=0 / rc_lookahead=40 / rc=crf / mbtree=0 / crf=17.5000 / qcomp=0.60 / qpmin=0 / qpmax=69 / qpstep=4 / vbv_maxrate=50000 / vbv_bufsize=62500 / crf_max=0.0 / nal_hrd=none / filler=0 / ip_ratio=1.40 / pb_ratio=1.30 / aq=1:1.00
Default : Yes
Forced : No
Color range : Limited
Color primaries : BT.709
Transfer characteristics : BT.709
Matrix coefficients : BT.709
Audio #1
ID : 2
Format : AC-3
Format/Info : Audio Coding 3
Mode extension : CM (complete main)
Format settings, Endianness : Big
Codec ID : A_AC3
Duration : 3h 16mn
Bit rate mode : Constant
Bit rate : 448 Kbps
Channel(s) : 6 channels
Channel positions : Front: L C R, Side: L R, LFE
Sampling rate : 48.0 KHz
Compression mode : Lossy
Stream size : 628 MiB (9%)
Title : Dub
Language : Russian
Default : Yes
Forced : No
Audio #2
ID : 3
Format : AC-3
Format/Info : Audio Coding 3
Mode extension : CM (complete main)
Format settings, Endianness : Big
Codec ID : A_AC3
Duration : 3h 16mn
Bit rate mode : Constant
Bit rate : 448 Kbps
Channel(s) : 6 channels
Channel positions : Front: L C R, Side: L R, LFE
Sampling rate : 48.0 KHz
Compression mode : Lossy
Stream size : 628 MiB (9%)
Title : Mvo.Киномания
Language : Russian
Default : No
Forced : No
Audio #3
ID : 4
Format : AC-3
Format/Info : Audio Coding 3
Mode extension : CM (complete main)
Format settings, Endianness : Big
Codec ID : A_AC3
Duration : 3h 16mn
Bit rate mode : Constant
Bit rate : 448 Kbps
Channel(s) : 6 channels
Channel positions : Front: L C R, Side: L R, LFE
Sampling rate : 48.0 KHz
Compression mode : Lossy
Stream size : 628 MiB (9%)
Title : Eng
Language : English
Default : No
Forced : No
Text #1
ID : 5
Format : UTF-8
Codec ID : S_TEXT/UTF8
Codec ID/Info : UTF-8 Plain Text
Title : Rus
Language : Russian
Default : No
Forced : No
Text #2
ID : 6
Format : UTF-8
Codec ID : S_TEXT/UTF8
Codec ID/Info : UTF-8 Plain Text
Title : Eng
Language : English
Default : No
Forced : No
Menu
00:00:00.000 : en:Foreword
00:01:30.090 : en:Awaiting Achilles
00:08:16.329 : en:"Is There No One Else?"
00:11:06.332 : en:Secret Lovers
00:18:22.101 : en:Brothers' Pledges
00:25:33.365 : en:Greatest War
00:27:41.493 : en:Recruiter Odysseus
00:33:23.334 : en:Glory and Doom
00:36:39.864 : en:Royal Welcome
00:40:01.565 : en:They're Coming for Me
00:44:50.187 : en:Immortality Is Yours
00:52:32.315 : en:Beach Combat
00:58:00.143 : en:Too Early in the Day
01:03:48.991 : en:No Need to Fear
01:07:41.223 : en:Spoils of War
01:12:36.352 : en:The Way I Love Helen
01:17:55.837 : en:Power, Not Love
01:21:31.720 : en:Soldiers Obey
01:23:55.864 : en:Gathering Forces
01:28:49.323 : en:Brave Offer
01:32:23.371 : en:Paris vs. Menelaus
01:36:58.145 : en:Battle Cry
01:41:39.093 : en:Greek Retreat
01:44:56.957 : en:Weak Morale
01:48:15.322 : en:Everyone Dies
01:54:20.687 : en:Born for This War
01:57:26.039 : en:Priam's Order
02:00:05.698 : en:Flaming Attack
02:03:47.086 : en:Hector's Adversary
02:08:40.212 : en:Tragic Mistake
02:10:42.668 : en:Night of Torments
02:15:10.435 : en:Summoned to Fight
02:20:47.772 : en:Now You Know
02:23:08.246 : en:Hector vs. Achilles
02:26:25.109 : en:Desecrating the Dead
02:28:29.734 : en:A Father's Plea
02:34:48.445 : en:Achilles' Word
02:37:28.939 : en:Inspirations and Honors
02:41:20.170 : en:Parting Gift
02:45:40.764 : en:Troy Under Siege
02:51:09.759 : en:We Will Be Together
02:55:39.028 : en:Royal Bloodshed
02:58:42.712 : en:Brought to Hell
03:02:24.433 : en:I Walked with Giants
03:05:12.601 : en:End Credits

x264 log

VIDEO ENCODING
x264 [info]: frame I:1777 Avg QP:15.89 size: 84183
x264 [info]: frame P:70471 Avg QP:17.59 size: 36304
x264 [info]: frame B:209777 Avg QP:19.46 size: 12870
x264 [info]: consecutive B-frames: 3.1% 5.2% 12.1% 27.8% 19.2% 24.5% 3.9% 1.9% 0.6% 0.3% 0.2% 0.1% 0.1% 0.4% 0.1% 0.1% 0.4%
x264 [info]: kb/s:3677.93
x264 [total]: encoded 282025 frames, 6.20 fps, 3677.93 kb/s, duration 12:38:37.67

Скриншот c названием фильма

Скриншоты

Сравнения

Sours by_IVAN@190282
Убедительная просьба пожалуйста кто скачал не бросайте раздачу!!!
 GOLD TORRENT! DOWNLOAD TRAFFIC DOES NOT CONSIDER! 
Torrent: Registered [ 2017-10-05 07:02 ]   · 18B970345FFFC8C68E2D52B3F7BAA97AAE2826D9

Download .torrent

Download

23 KB

Status: checked
Completed: 0 times
Size: 8.72 GB
Поделиться:
terms.php
[Profile] [PM]
Display posts:    
Reply to topic

Current time is: 28-Oct 03:41

All times are UTC + 3



You cannot post new topics in this forum
You cannot reply to topics in this forum
You cannot edit your posts in this forum
You cannot delete your posts in this forum
You cannot vote in polls in this forum
You cannot attach files in this forum
You can download files in this forum