Война миров Z / World War Z (Марк Форстер / Marc Forster) [2013, США, ужасы, фантастика, боевик, триллер, BDRip-AVC] [Расширенная версия / Extended Cut] Dub + Sub Rus + Original Eng

Reply to topic
DL-List and Torrent activity
Size:  2.19 GB   |    Registered:  3 months 21 day   |    Completed:  0 times

Seeder not seen: Never

 
   
 
 
Author Message

admin ®

Gender: Male

Longevity: 3 years

Posts: 10019

Post 05-Oct-2017 06:52

[Quote]

Война миров ZWorld War ZRemember Philly Расширенная версия / Extended Cut

Страна: США
Жанр: ужасы, фантастика, боевик, триллер
Год выпуска: 2013
Продолжительность: 02:03:03
Перевод: Профессиональный (дублированный) [Лицензия](со вставками альтернативного дубляжа)
Субтитры: русские , английские
Оригинальная аудиодорожка: английский
Режиссер: Марк Форстер / Marc Forster
В ролях: Брэд Питт, Мирей Инос, Джеймс Бэдж Дэйл, Мэттью Фокс, Даниэлла Кертеш, Луди Бокен, Фана Мокоэна, Дэвид Морc, Элайес Габел, Питер Капальди
Описание: Сотрудник ООН Джерри Лэйн наперегонки со временем пытается остановить заражение, способное полностью истребить человечество
Доп. информация:

Качество видео: BDRip-AVC |Война миров Z / World War Z (2013) 1080p BD-Remux|
Формат видео: MKV
Видео: 1056 x 440 (2:40:1) at 23.976 fps AVC at 1644 Кбит/сек
Аудио: AC3 Dolby Digital; 448 kbps; 6 Ch; 48 kHz (Rus)
Аудио 2: AC3 Dolby Digital; 448 kbps; 6 Ch; 48 kHz (Eng)
Формат субтитров: softsub (SRT)
Доп. информация о субтитрах: отключаемые

MediaInfo

175052068372447863658618257884026337515 (0x83B1CD51DFA3E7F99F247DB1106178EB)
Complete name : F:\Фильмы\Война миров Z\Vojna.Mirov.Z.2013.BDRip.x264.mkv
Format : Matroska
Format version : Version 4 / Version 2
File size : 2.19 GiB
Duration : 2h 3mn
Overall bit rate : 2 542 Kbps
Movie name : Vojna.Mirov.Z
Encoded date : UTC 2013-09-15 14:53:03
Writing application : mkvmerge v5.9.0 ('On The Loose') built on Dec 15 2012 16:39:58
Writing library : libebml v1.3.0 + libmatroska v1.4.0
Video
ID : 1
Format : AVC
Format/Info : Advanced Video Codec
Format profile : High@L4.1
Format settings, CABAC : Yes
Format settings, ReFrames : 10 frames
Codec ID : V_MPEG4/ISO/AVC
Duration : 2h 3mn
Bit rate : 1 644 Kbps
Width : 1 056 pixels
Height : 440 pixels
Display aspect ratio : 2.40:1
Frame rate mode : Constant
Frame rate : 23.976 fps
Color space : YUV
Chroma subsampling : 4:2:0
Bit depth : 8 bits
Scan type : Progressive
Bits/(Pixel*Frame) : 0.148
Stream size : 1.37 GiB (63%)
Title : World War Z
Writing library : x264 core 130 r2273 b3065e6
Encoding settings : cabac=1 / ref=10 / deblock=1:-3:-2 / analyse=0x3:0x133 / me=umh / subme=11 / psy=1 / psy_rd=1.08:0.06 / mixed_ref=1 / me_range=48 / chroma_me=1 / trellis=2 / 8x8dct=1 / cqm=0 / deadzone=21,11 / fast_pskip=0 / chroma_qp_offset=-3 / threads=8 / lookahead_threads=2 / sliced_threads=0 / nr=0 / decimate=1 / interlaced=0 / bluray_compat=0 / constrained_intra=0 / bframes=11 / b_pyramid=2 / b_adapt=2 / b_bias=0 / direct=3 / weightb=1 / open_gop=0 / weightp=2 / keyint=250 / keyint_min=23 / scenecut=40 / intra_refresh=0 / rc_lookahead=60 / rc=2pass / mbtree=0 / bitrate=1644 / ratetol=1.0 / qcomp=0.70 / qpmin=0 / qpmax=69 / qpstep=4 / cplxblur=20.0 / qblur=0.5 / vbv_maxrate=20000 / vbv_bufsize=20000 / nal_hrd=none / ip_ratio=1.35 / pb_ratio=1.25 / aq=2:0.80
Language : English
Default : Yes
Forced : No
Audio #1
ID : 2
Format : AC-3
Format/Info : Audio Coding 3
Mode extension : CM (complete main)
Format settings, Endianness : Big
Codec ID : A_AC3
Duration : 2h 3mn
Bit rate mode : Constant
Bit rate : 448 Kbps
Channel(s) : 6 channels
Channel positions : Front: L C R, Side: L R, LFE
Sampling rate : 48.0 KHz
Bit depth : 16 bits
Compression mode : Lossy
Stream size : 394 MiB (18%)
Title : Dub | DD 5.1 @ 448 kbps
Language : Russian
Default : Yes
Forced : Yes
Audio #2
ID : 3
Format : AC-3
Format/Info : Audio Coding 3
Mode extension : CM (complete main)
Format settings, Endianness : Big
Codec ID : A_AC3
Duration : 2h 3mn
Bit rate mode : Constant
Bit rate : 448 Kbps
Channel(s) : 6 channels
Channel positions : Front: L C R, Side: L R, LFE
Sampling rate : 48.0 KHz
Bit depth : 16 bits
Compression mode : Lossy
Stream size : 394 MiB (18%)
Title : Original | DD 5.1 @ 448 kbps
Language : English
Default : No
Forced : No
Text #1
ID : 4
Format : UTF-8
Codec ID : S_TEXT/UTF8
Codec ID/Info : UTF-8 Plain Text
Language : English
Default : No
Forced : No
Text #2
ID : 5
Format : UTF-8
Codec ID : S_TEXT/UTF8
Codec ID/Info : UTF-8 Plain Text
Language : Russian
Default : No
Forced : No

Скриншот c названием фильма

Скриншоты

 GOLD TORRENT! DOWNLOAD TRAFFIC DOES NOT CONSIDER! 
Torrent: Registered [ 2020-06-06 07:37 ]   · 09FC041E7CC34F4226A58B4084E825A749244CD1

Download .torrent

Download

11 KB

Status: checked
Completed: 0 times
Size: 2.19 GB
Поделиться:
terms.php
[Profile] [PM]
Display posts:    
Reply to topic

Current time is: 27-Sep 16:44

All times are UTC + 3



You cannot post new topics in this forum
You cannot reply to topics in this forum
You cannot edit your posts in this forum
You cannot delete your posts in this forum
You cannot vote in polls in this forum
You cannot attach files in this forum
You can download files in this forum