Люди Икс: Дни минувшего будущего / X-Men: Days of Future Past. The Rogue Cut (Брайан Сингер / Bryan Singer) [2014, США, Великобритания, Фантастика, боевик, триллер, приключения, BDRip-AVC] [Расширенная версия / Unrated cut] Dub + Sub Rus + Original E

Reply to topic
DL-List and Torrent activity
Size:  5.67 GB   |    Registered:  3 years 1 month   |    Completed:  0 times

Seeder not seen: Never

 
   
 
 
Author Message

admin ®

Gender: Male

Longevity: 3 years 1 month

Posts: 10103

Post 05-Oct-2017 06:16

[Quote]

Люди Икс: Дни минувшего будущегоX-Men: Days of Future Past. The Rogue Cut«His past. Our future»Расширенная версия / Unrated cut

Страна: США, Великобритания
Жанр: Фантастика, боевик, триллер, приключения
Год выпуска: 2014
Продолжительность: 02:28:45
Перевод: Профессиональный (дублированный) ) iTunes
Субтитры: русские,английские
Оригинальная аудиодорожка: английский
Режиссер: Брайан Сингер / Bryan Singer
В ролях: Хью Джекман, Иэн МакКеллен, Патрик Стюарт, Холли Берри, Майкл Фассбендер, Джеймс МакЭвой, Анна Пакуин, Эллен Пейдж, Шон Эшмор, Дженнифер Лоуренс, Николас Холт, Питер Динклэйдж, Омар Си, Бинбин Фань
Описание: Будущее. Мрачное, тяжёлое. У людей остался, возможно, последний шанс на выживание, потому как разработанная в семидесятых годах двадцатого века программа "Стражи" превзошла самые смелые ожидания. Роботы-стражи, созданные для защиты людей уже истребили тысячи мутантов по всему миру, но теперь они убивают и обычных людей со спящими генами мутантов. Стражей нельзя победить в лобовой атаке, ведь они умеют перенимать способности тех, с кем сражаются и более того - обмениваться этими способностями бесконтактно! Идеальные воины, и бесчувственные убийцы, они были созданы на основе ДНК Мистик, попавшей в руки создателя стражей Боливара Траска. Китти Прайд отправляет сознание Логана в прошлое, чтобы он нашёл Мистик, предотвратил убийство Траска и заодно не дал попасть в плен самой Рэйвен.
Доп. информация:
Релиз группы:
Сохранены оригинальные главы как на Bluray
Качество видео: BDRip-AVC | Люди Икс: Дни минувшего будущего / X-Men: Days of Future Past. The Rogue Cut (2014) 1080p BD-Remux|HD Club|
Формат видео: MKV
Видео: 1152x480 (2:40:1), 23,976 fps, 4500 Кbps, 0.341 bit/pixe
Аудио: 48 kHz, AC3 Dolby Digital, 3/2 (L,C,R,l,r) + LFE ch, ~384.00 kbps avg DUB
Аудио 2: 48 kHz, AC3 Dolby Digital, 3/2 (L,C,R,l,r) + LFE ch, ~448.00 kbps avg ENG
Формат субтитров: softsub (SRT)
Доп. информация о субтитрах: отключаемые

MediaInfo

General
Unique ID : 250901829408748854649216699271635444552 (0xBCC1EF444DCC218E960B1526572EA348)
Complete name : D:\Мои рипы\Люди Икс Дни минувшего будущего\X Men Days of Future Past The Rogue Cut by_IVAN@190282.mkv
Format : Matroska
Format version : Version 4 / Version 2
File size : 5.67 GiB
Duration : 2h 28mn
Overall bit rate : 5 458 Kbps
Encoded date : UTC 2016-03-04 00:05:59
Writing application : mkvmerge v8.8.0 ('Wind at my back') 64bit
Writing library : libebml v1.3.3 + libmatroska v1.4.4
Attachements : cover.jpg
DURATION : 02:26:58.749000000
NUMBER_OF_FRAMES : 1916
NUMBER_OF_BYTES : 52849
_STATISTICS_WRITING_APP : mkvmerge v8.8.0 ('Wind at my back') 64bit
_STATISTICS_WRITING_DATE_UT : 2016-03-04 00:05:59
_STATISTICS_TAGS : BPS DURATION NUMBER_OF_FRAMES NUMBER_OF_BYTES
Video
ID : 1
Format : AVC
Format/Info : Advanced Video Codec
Format profile : High@L4.1
Format settings, CABAC : Yes
Format settings, ReFrames : 12 frames
Codec ID : V_MPEG4/ISO/AVC
Duration : 2h 28mn
Bit rate : 4 518 Kbps
Width : 1 152 pixels
Height : 480 pixels
Display aspect ratio : 2.40:1
Frame rate mode : Constant
Frame rate : 23.976 fps
Color space : YUV
Chroma subsampling : 4:2:0
Bit depth : 8 bits
Scan type : Progressive
Bits/(Pixel*Frame) : 0.341
Stream size : 4.69 GiB (83%)
Title : X Men Days of Future Past The Rogue Cut by_IVAN@190282
Writing library : x264 core 146 r2538kMod 121396c
Encoding settings : cabac=1 / ref=12 / deblock=1:-3:-2 / analyse=0x3:0x133 / me=umh / subme=11 / psy=1 / fade_compensate=0.00 / psy_rd=1.00:0.05 / mixed_ref=1 / me_range=48 / chroma_me=1 / trellis=2 / 8x8dct=1 / cqm=0 / deadzone=21,11 / fast_pskip=0 / chroma_qp_offset=-3 / threads=6 / lookahead_threads=6 / sliced_threads=0 / nr=0 / decimate=1 / interlaced=0 / bluray_compat=0 / constrained_intra=0 / fgo=0 / bframes=16 / b_pyramid=2 / b_adapt=2 / b_bias=0 / direct=3 / weightb=1 / open_gop=0 / weightp=2 / keyint=240 / keyint_min=23 / scenecut=40 / intra_refresh=0 / rc_lookahead=60 / rc=crf / mbtree=0 / crf=17.8000 / qcomp=0.60 / qpmin=0 / qpmax=69 / qpstep=4 / vbv_maxrate=50000 / vbv_bufsize=62500 / crf_max=0.0 / nal_hrd=none / filler=0 / ip_ratio=1.40 / pb_ratio=1.30 / aq=2:1.80
Language : English
Default : Yes
Forced : No
Color range : Limited
Color primaries : BT.709
Transfer characteristics : BT.709
Matrix coefficients : BT.709
DURATION : 02:28:45.667000000
NUMBER_OF_FRAMES : 214002
NUMBER_OF_BYTES : 5159691300
_STATISTICS_WRITING_APP : mkvmerge v8.8.0 ('Wind at my back') 64bit
_STATISTICS_WRITING_DATE_UT : 2016-03-04 00:05:59
_STATISTICS_TAGS : BPS DURATION NUMBER_OF_FRAMES NUMBER_OF_BYTES
Audio #1
ID : 2
Format : AC-3
Format/Info : Audio Coding 3
Mode extension : CM (complete main)
Format settings, Endianness : Big
Codec ID : A_AC3
Duration : 2h 28mn
Bit rate mode : Constant
Bit rate : 384 Kbps
Channel(s) : 6 channels
Channel positions : Front: L C R, Side: L R, LFE
Sampling rate : 48.0 KHz
Compression mode : Lossy
Stream size : 409 MiB (7%)
Title : Dub
Language : Russian
Default : Yes
Forced : No
Audio #2
ID : 3
Format : AC-3
Format/Info : Audio Coding 3
Mode extension : CM (complete main)
Format settings, Endianness : Big
Codec ID : A_AC3
Duration : 2h 28mn
Bit rate mode : Constant
Bit rate : 448 Kbps
Channel(s) : 6 channels
Channel positions : Front: L C R, Side: L R, LFE
Sampling rate : 48.0 KHz
Compression mode : Lossy
Stream size : 477 MiB (8%)
Title : Eng
Language : English
Default : No
Forced : No
Text #1
ID : 4
Format : UTF-8
Codec ID : S_TEXT/UTF8
Codec ID/Info : UTF-8 Plain Text
Title : Rus forsed
Language : Russian
Default : Yes
Forced : No
Text #2
ID : 5
Format : UTF-8
Codec ID : S_TEXT/UTF8
Codec ID/Info : UTF-8 Plain Text
Title : Rus
Language : Russian
Default : No
Forced : No
Text #3
ID : 6
Format : UTF-8
Codec ID : S_TEXT/UTF8
Codec ID/Info : UTF-8 Plain Text
Title : Eng forsed
Language : English
Default : No
Forced : No
Text #4
ID : 7
Format : UTF-8
Codec ID : S_TEXT/UTF8
Codec ID/Info : UTF-8 Plain Text
Title : Eng
Language : English
Default : No
Forced : No
Menu
00:00:00.000 : en:Chapter 1
00:03:33.338 : en:Chapter 2
00:08:04.734 : en:Chapter 3
00:10:34.216 : en:Chapter 4
00:15:11.410 : en:Chapter 5
00:18:44.248 : en:Chapter 6
00:22:43.528 : en:Chapter 7
00:24:38.768 : en:Chapter 8
00:29:05.618 : en:Chapter 9
00:33:03.439 : en:Chapter 10
00:37:11.896 : en:Chapter 11
00:38:49.827 : en:Chapter 12
00:41:06.922 : en:Chapter 13
00:43:50.335 : en:Chapter 14
00:50:05.377 : en:Chapter 15
00:52:07.082 : en:Chapter 16
00:55:11.391 : en:Chapter 17
00:57:56.347 : en:Chapter 18
01:01:04.660 : en:Chapter 19
01:04:01.420 : en:Chapter 20
01:06:39.829 : en:Chapter 21
01:10:22.801 : en:Chapter 22
01:13:00.459 : en:Chapter 23
01:16:28.333 : en:Chapter 24
01:18:48.723 : en:Chapter 25
01:20:44.589 : en:Chapter 26
01:22:46.961 : en:Chapter 27
01:28:07.573 : en:Chapter 28
01:31:19.056 : en:Chapter 29
01:33:50.958 : en:Chapter 30
01:39:22.372 : en:Chapter 31
01:42:10.290 : en:Chapter 32
01:44:32.015 : en:Chapter 33
01:49:13.546 : en:Chapter 34
01:51:00.862 : en:Chapter 35
01:54:54.303 : en:Chapter 36
01:59:15.940 : en:Chapter 37
02:02:13.742 : en:Chapter 38
02:04:30.504 : en:Chapter 39
02:08:16.229 : en:Chapter 40
02:13:27.582 : en:Chapter 41
02:16:57.250 : en:Chapter 42
02:19:19.809 : en:Chapter 43
02:27:34.011 : en:Chapter 44

x264 log

VIDEO ENCODING
x264 [info]: frame I:2002 Avg QP:15.14 size:112079 PSNR Mean Y:46.77 U:50.32 V:50.49 Avg:47.64 Global:46.23
x264 [info]: frame P:51029 Avg QP:16.18 size: 43548 PSNR Mean Y:45.33 U:49.67 V:49.39 Avg:46.25 Global:44.86
x264 [info]: frame B:160971 Avg QP:17.08 size: 16855 PSNR Mean Y:45.02 U:49.21 V:49.24 Avg:45.95 Global:44.47
x264 [info]: consecutive B-frames: 3.8% 3.9% 13.3% 17.2% 16.6% 32.6% 5.9% 1.7% 1.5% 0.8% 0.7% 0.4% 0.3% 0.3% 0.2% 0.2% 0.5%
x264 [total]: encoded 214002 frames, 6.07 fps, 4501.59 kb/s, duration 9:47:52.30

Скриншот c названием фильма

Скриншоты

Убедительная просьба пожалуйста кто скачал не бросайте раздачу!!!
 GOLD TORRENT! DOWNLOAD TRAFFIC DOES NOT CONSIDER! 
Torrent: Registered [ 2017-10-05 06:16 ]   · 30A9B4E25A922199DFB74D7B46F3077D871A062C

Download .torrent

Download

15 KB

Status: checked
Completed: 0 times
Size: 5.67 GB
Поделиться:
terms.php
[Profile] [PM]
Display posts:    
Reply to topic

Current time is: 25-Nov 10:46

All times are UTC + 3



You cannot post new topics in this forum
You cannot reply to topics in this forum
You cannot edit your posts in this forum
You cannot delete your posts in this forum
You cannot vote in polls in this forum
You cannot attach files in this forum
You can download files in this forum