Голодные игры: Сойка-пересмешница. Часть I / The Hunger Games: Mockingjay - Part 1 (Френсис Лоуренс / Francis Lawrence) [2014, США, Фантастика, приключения, BDRip-AVC] Dub + AVO Ю.Сербин + Sub Rus, Eng + Original Eng

Reply to topic
DL-List and Torrent activity
Size:  3.1 GB   |    Registered:  3 months 22 days   |    Completed:  0 times

Seeder not seen: Never

 
   
 
 
Author Message

admin ®

Gender: Male

Longevity: 3 years

Posts: 10017

Post 05-Oct-2017 06:13

[Quote]

Голодные игры: Сойка-пересмешница. Часть IThe Hunger Games: Mockingjay - Part 1«Храбрость одного изменит мир»

Страна: США
Жанр: Фантастика, приключения
Год выпуска: 2014
Продолжительность: 02:03:21
Перевод: Профессиональный (дублированный) [BD]
Перевод 2: Авторский (одноголосый закадровый) Ю.Сербин
Субтитры: русские,английские
Оригинальная аудиодорожка: английский
Режиссер: Френсис Лоуренс / Francis Lawrence
В ролях: Дженнифер Лоуренс, Лиам Хемсворт, Джош Хатчерсон, Джулианна Мур, Филип Сеймур Хоффман, Дональд Сазерленд, Вуди Харрельсон, Элизабет Бэнкс, Натали Дормер, Сэм Клафлин
Описание: 75-ые Голодные игры изменили все. Китнисс нарушила правила, и непоколебимое до той поры деспотичное правление Капитолия пошатнулось. У людей появилась надежда, и ее символ – Сойка-пересмешница. Теперь, чтобы освободить захваченного в плен Пита и защитить своих близких, Китнисс придется сражаться в настоящих битвах и стать еще сильнее, чем на арене игр.
Доп. информация:
Релиз группы:
Сохранены оригинальные главы как на Bluray
Качество видео: BDRip-AVC BDRip-AVC |Голодные игры: Сойка-пересмешница. Часть I / The Hunger Games: Mockingjay - Part 1 (2014) 1080p BD-Remux| HD Club
Формат видео: MKV
Видео: 1152x480 (2.40:1), 23.976 fps, 2243 Кbps, 0.169 bit/pixe
Аудио: 48 kHz, AC3 Dolby Digital, 3/2 (L,C,R,l,r) + LFE ch, 448.00 kbps | DUB
Аудио 2: 48 kHz, AC3 Dolby Digital, 3/2 (L,C,R,l,r) + LFE ch, ~448.00 kbps avg | AVO отдельно
Аудио 3: 48 kHz, AC3 Dolby Digital, 3/2 (L,C,R,l,r) + LFE ch, 448.00 kbps | ENG
Формат субтитров: softsub (SRT)
Доп. информация о субтитрах: отключаемые

MediaInfo

General
Unique ID : 252189233153354178365023518178350834541 (0xBDB9E12C099DD308AD2438B89931A36D)
Complete name : E:\Мои рипы\Голодные игры Сойка-пересмешница. Часть I\The Hunger Games Mockingjay Part 1 by_IVAN@.190282.mkv
Format : Matroska
Format version : Version 4 / Version 2
File size : 2.71 GiB
Duration : 2h 0mn
Overall bit rate : 3 223 Kbps
Movie name : The Hunger Games Mockingjay Part 1 by_IVAN@190282
Encoded date : UTC 2016-02-26 07:22:26
Writing application : mkvmerge v8.8.0 ('Wind at my back') 64bit
Writing library : libebml v1.3.3 + libmatroska v1.4.4
Attachements : cover.jpg
DURATION : 01:49:47.448000000
NUMBER_OF_FRAMES : 1264
NUMBER_OF_BYTES : 43878
_STATISTICS_WRITING_APP : mkvmerge v8.8.0 ('Wind at my back') 64bit
_STATISTICS_WRITING_DATE_UT : 2016-02-26 07:22:26
_STATISTICS_TAGS : BPS DURATION NUMBER_OF_FRAMES NUMBER_OF_BYTES
Video
ID : 1
Format : AVC
Format/Info : Advanced Video Codec
Format profile : High@L4.1
Format settings, CABAC : Yes
Format settings, ReFrames : 14 frames
Codec ID : V_MPEG4/ISO/AVC
Duration : 2h 0mn
Bit rate : 2 263 Kbps
Width : 1 152 pixels
Height : 480 pixels
Display aspect ratio : 2.40:1
Frame rate mode : Constant
Frame rate : 23.976 fps
Color space : YUV
Chroma subsampling : 4:2:0
Bit depth : 8 bits
Scan type : Progressive
Bits/(Pixel*Frame) : 0.171
Stream size : 1.91 GiB (70%)
Title : The Hunger Games Mockingjay Part 1 by_IVAN@190282
Writing library : x264 core 146 r2538kMod 121396c
Encoding settings : cabac=1 / ref=14 / deblock=1:-3:-3 / analyse=0x3:0x113 / me=umh / subme=11 / psy=1 / fade_compensate=0.00 / psy_rd=1.00:0.15 / mixed_ref=1 / me_range=48 / chroma_me=1 / trellis=2 / 8x8dct=1 / cqm=0 / deadzone=21,11 / fast_pskip=0 / chroma_qp_offset=0 / threads=6 / lookahead_threads=6 / sliced_threads=0 / slices=10 / nr=0 / decimate=1 / interlaced=0 / bluray_compat=0 / constrained_intra=0 / fgo=0 / bframes=16 / b_pyramid=2 / b_adapt=2 / b_bias=0 / direct=3 / weightb=1 / open_gop=1 / weightp=2 / keyint=240 / keyint_min=23 / scenecut=40 / intra_refresh=0 / rc_lookahead=40 / rc=crf / mbtree=0 / crf=17.1000 / qcomp=0.60 / qpmin=0 / qpmax=69 / qpstep=4 / vbv_maxrate=50000 / vbv_bufsize=62500 / crf_max=0.0 / nal_hrd=none / filler=0 / ip_ratio=1.40 / pb_ratio=1.30 / aq=1:1.00
Default : Yes
Forced : No
Color range : Limited
Color primaries : BT.709
Transfer characteristics : BT.709
Matrix coefficients : BT.709
Audio #1
ID : 2
Format : AC-3
Format/Info : Audio Coding 3
Mode extension : CM (complete main)
Format settings, Endianness : Big
Codec ID : A_AC3
Duration : 2h 0mn
Bit rate mode : Constant
Bit rate : 448 Kbps
Channel(s) : 6 channels
Channel positions : Front: L C R, Side: L R, LFE
Sampling rate : 48.0 KHz
Compression mode : Lossy
Stream size : 386 MiB (14%)
Title : Dub
Language : Russian
Default : Yes
Forced : No
Audio #2
ID : 3
Format : AC-3
Format/Info : Audio Coding 3
Mode extension : CM (complete main)
Format settings, Endianness : Big
Codec ID : A_AC3
Duration : 2h 0mn
Bit rate mode : Constant
Bit rate : 448 Kbps
Channel(s) : 6 channels
Channel positions : Front: L C R, Side: L R, LFE
Sampling rate : 48.0 KHz
Compression mode : Lossy
Stream size : 386 MiB (14%)
Title : Eng
Language : English
Default : No
Forced : No
Text #1
ID : 4
Format : UTF-8
Codec ID : S_TEXT/UTF8
Codec ID/Info : UTF-8 Plain Text
Title : Rus.forsed
Language : Russian
Default : Yes
Forced : Yes
Text #2
ID : 5
Format : UTF-8
Codec ID : S_TEXT/UTF8
Codec ID/Info : UTF-8 Plain Text
Title : Rus
Language : Russian
Default : No
Forced : No
Text #3
ID : 6
Format : UTF-8
Codec ID : S_TEXT/UTF8
Codec ID/Info : UTF-8 Plain Text
Title : Eng
Language : English
Default : No
Forced : No
Menu
00:00:00.000 : en:Chapitre 01
00:08:43.648 : en:Chapitre 02
00:15:02.818 : en:Chapitre 03
00:22:56.082 : en:Chapitre 04
00:29:52.457 : en:Chapitre 05
00:36:45.745 : en:Chapitre 06
00:42:34.969 : en:Chapitre 07
00:50:33.989 : en:Chapitre 08
00:56:31.012 : en:Chapitre 09
01:02:14.897 : en:Chapitre 10
01:09:27.830 : en:Chapitre 11
01:17:37.444 : en:Chapitre 12
01:25:10.104 : en:Chapitre 13
01:34:20.946 : en:Chapitre 14
01:41:33.837 : en:Chapitre 15
01:47:20.100 : en:Chapitre 16

x264 log

VIDEO ENCODING
x264 [info]: frame I:1174 Avg QP:15.41 size: 67402
x264 [info]: frame P:36278 Avg QP:16.20 size: 25948
x264 [info]: frame B:140754 Avg QP:18.04 size: 7962
x264 [info]: consecutive B-frames: 2.0% 2.5% 13.0% 9.0% 10.7% 40.8% 5.2% 1.3% 3.5% 1.4% 2.1% 3.5% 1.5% 0.9% 0.7% 0.3% 1.5%
x264 [info]: kb/s:2304.59
x264 [total]: encoded 178206 frames, 4.60 fps, 2304.59 kb/s, duration 10:45:38.90

Скриншот c названием фильма

Скриншоты


Убедительная просьба пожалуйста кто скачал не бросайте раздачу!!!
 GOLD TORRENT! DOWNLOAD TRAFFIC DOES NOT CONSIDER! 
Torrent: Registered [ 2020-06-06 07:39 ]   · ABB244EE23B0F8F1A9E9AAEE29466799867EB866

Download .torrent

Download

16 KB

Status: checked
Completed: 0 times
Size: 3.1 GB
Поделиться:
terms.php
[Profile] [PM]
Display posts:    
Reply to topic

Current time is: 28-Sep 09:40

All times are UTC + 3



You cannot post new topics in this forum
You cannot reply to topics in this forum
You cannot edit your posts in this forum
You cannot delete your posts in this forum
You cannot vote in polls in this forum
You cannot attach files in this forum
You can download files in this forum