Прикончи их всех / Kill'em All (Питер Малота / Peter Malota) [2017, США, Боевик, BDRip-AVC] MVO (Bluray EUR) + Sub Rus, Eng + Original Eng

Reply to topic
DL-List and Torrent activity
Size:  2.35 GB   |    Registered:  3 months 23 days   |    Completed:  0 times

Seeder not seen: Never

 
   
 
 
Author Message

admin ®

Gender: Male

Longevity: 3 years

Posts: 10018

Post 05-Oct-2017 06:10

[Quote]

Прикончи их всехKill'em All

Страна: США
Жанр: Боевик
Год выпуска: 2017
Продолжительность: 01:35:50
Перевод: Профессиональный (многоголосый закадровый) Blu-ray EUR
Субтитры: русские, английские
Оригинальная аудиодорожка: английский
Режиссер: Питер Малота / Peter Malota
В ролях: Жан-Клод Ван Дамм, Петер Стормаре, Отем Ризер, Мария Кончита Алонсо, Дэниэл Бернхард, Кристофер Ван Варенберг, Джеймс П. Беннетт, Ганс Марреро, Пол Сэмпсон
Описание: В обычную американскую больницу поступает необычный пациент, находящийся при смерти после массовой перестрелки. Бойня возобновляется, когда по его следу приходит группа вооружённых налётчиков. Оставшейся в живых свидетельнице — молодой медсестре Сюзанне — придётся иметь дело с агентами ФБР и участниками международного заговора.
Доп. информация:
Релиз группы:
Сохранены оригинальные главы как на Bluray
Качество видео: BDRip-AVC Прикончи их всех / Kill'em All (2017) Blu-ray- EUR 1080p AVC DD5.1
Формат видео: MKV
Видео: 1152x480 (2.40:1), 23,976 fps, 2539 Кbps, 0.191 bit/pixe
Аудио: 48 kHz, AC3 Dolby Digital, 3/2 (L,C,R,l,r) + LFE ch, ~448.00 kbps avg MVO
Аудио 2: 48 kHz, AC3 Dolby Digital, 3/2 (L,C,R,l,r) + LFE ch, ~448.00 kbps avg ENG
Формат субтитров: softsub (SRT)
Доп. информация о субтитрах: отключаемые srt

MediaInfo

General
Unique ID : 188334293272962346759712035032776695941 (0x8DAFDD91351E8DA889FC6DBFEC05E085)
Complete name : F:\Мои рипы\Прикончи их всех\Kill'em All by_IVAN@190282.mkv
Format : Matroska
Format version : Version 4 / Version 2
File size : 2.35 GiB
Duration : 1h 35mn
Overall bit rate : 3 504 Kbps
Movie name : Kill'em All by_IVAN@190282
Encoded date : UTC 2017-08-01 18:41:40
Writing application : mkvmerge v14.0.0 ('Flow') 64bit
Writing library : libebml v1.3.4 + libmatroska v1.4.5
DURATION : 01:33:16.007000000
NUMBER_OF_FRAMES : 845
NUMBER_OF_BYTES : 27904
_STATISTICS_WRITING_APP : mkvmerge v14.0.0 ('Flow') 64bit
_STATISTICS_WRITING_DATE_UTC : 2017-08-01 18:41:40
_STATISTICS_TAGS : BPS DURATION NUMBER_OF_FRAMES NUMBER_OF_BYTES
Attachment : Yes
Video
ID : 1
Format : AVC
Format/Info : Advanced Video Codec
Format profile : High@L4.1
Format settings, CABAC : Yes
Format settings, ReFrames : 11 frames
Codec ID : V_MPEG4/ISO/AVC
Duration : 1h 35mn
Bit rate : 2 539 Kbps
Width : 1 152 pixels
Height : 480 pixels
Display aspect ratio : 2.40:1
Frame rate mode : Constant
Frame rate : 23.976 fps
Color space : YUV
Chroma subsampling : 4:2:0
Bit depth : 8 bits
Scan type : Progressive
Bits/(Pixel*Frame) : 0.191
Stream size : 1.70 GiB (72%)
Title : Kill'em All by_IVAN@190282
Writing library : x264 core 152 r2851kMod ba24899
Encoding settings : cabac=1 / ref=11 / deblock=1:-3:-3 / analyse=0x3:0x113 / me=umh / subme=11 / psy=1 / fade_compensate=0.00 / psy_rd=1.00:0.05 / mixed_ref=1 / me_range=48 / chroma_me=1 / trellis=2 / 8x8dct=1 / cqm=0 / deadzone=21,11 / fast_pskip=0 / chroma_qp_offset=-3 / threads=6 / lookahead_threads=6 / sliced_threads=0 / nr=0 / decimate=1 / interlaced=0 / bluray_compat=0 / constrained_intra=0 / bframes=16 / b_pyramid=2 / b_adapt=2 / b_bias=0 / direct=3 / weightb=1 / open_gop=0 / weightp=2 / keyint=240 / keyint_min=23 / scenecut=40 / intra_refresh=0 / rc_lookahead=60 / rc=crf / mbtree=1 / crf=16.6000 / qcomp=0.60 / qpmin=0 / qpmax=69 / qpstep=4 / vbv_maxrate=50000 / vbv_bufsize=62500 / crf_max=0.0 / nal_hrd=none / filler=0 / ip_ratio=1.40 / aq=3:0.70
Language : English
Default : Yes
Forced : No
Color primaries : BT.709
Transfer characteristics : BT.709
Matrix coefficients : BT.709
DURATION : 01:35:50.620000000
NUMBER_OF_FRAMES : 137877
NUMBER_OF_BYTES : 1872971532
_STATISTICS_WRITING_APP : mkvmerge v14.0.0 ('Flow') 64bit
_STATISTICS_WRITING_DATE_UTC : 2017-08-01 18:41:40
_STATISTICS_TAGS : BPS DURATION NUMBER_OF_FRAMES NUMBER_OF_BYTES
Audio #1
ID : 2
Format : AC-3
Format/Info : Audio Coding 3
Mode extension : CM (complete main)
Format settings, Endianness : Big
Codec ID : A_AC3
Duration : 1h 35mn
Bit rate mode : Constant
Bit rate : 448 Kbps
Channel(s) : 6 channels
Channel positions : Front: L C R, Side: L R, LFE
Sampling rate : 48.0 KHz
Bit depth : 16 bits
Compression mode : Lossy
Stream size : 307 MiB (13%)
Title : Mvo Bluray EUR
Language : Russian
Default : Yes
Forced : No
Audio #2
ID : 3
Format : AC-3
Format/Info : Audio Coding 3
Mode extension : CM (complete main)
Format settings, Endianness : Big
Codec ID : A_AC3
Duration : 1h 35mn
Bit rate mode : Constant
Bit rate : 448 Kbps
Channel(s) : 6 channels
Channel positions : Front: L C R, Side: L R, LFE
Sampling rate : 48.0 KHz
Bit depth : 16 bits
Compression mode : Lossy
Stream size : 307 MiB (13%)
Title : Eng
Language : English
Default : No
Forced : No
Text #1
ID : 4
Format : UTF-8
Codec ID : S_TEXT/UTF8
Codec ID/Info : UTF-8 Plain Text
Title : Rus
Language : Russian
Default : No
Forced : No
Text #2
ID : 5
Format : UTF-8
Codec ID : S_TEXT/UTF8
Codec ID/Info : UTF-8 Plain Text
Title : Eng
Language : English
Default : No
Forced : No
Menu
00:00:00.000 : en:00:00:00.000
00:10:02.602 : en:00:10:02.602
00:15:03.653 : en:00:15:03.653
00:20:25.599 : en:00:20:25.599
00:23:32.661 : en:00:23:32.661
00:30:05.679 : en:00:30:05.679
00:38:21.716 : en:00:38:21.716
00:43:43.454 : en:00:43:43.454
00:48:37.873 : en:00:48:37.873
00:53:32.000 : en:00:53:32.000
00:58:52.279 : en:00:58:52.279
01:03:58.334 : en:01:03:58.334
01:08:31.065 : en:01:08:31.065
01:12:44.068 : en:01:12:44.068
01:21:30.177 : en:01:21:30.177
01:28:14.122 : en:01:28:14.122

x264 log

VIDEO ENCODING
x264 [info]: frame I:1065 Avg QP:14.48 size: 94855 PSNR Mean Y:49.75 U:51.94 V:52.15 Avg:50.36 Global:50.09
x264 [info]: frame P:34416 Avg QP:16.00 size: 27461 PSNR Mean Y:46.70 U:49.53 V:49.73 Avg:47.42 Global:46.98
x264 [info]: frame B:102396 Avg QP:18.77 size: 8075 PSNR Mean Y:46.00 U:49.19 V:49.52 Avg:46.81 Global:46.33
x264 [info]: consecutive B-frames: 4.0% 4.8% 10.7% 27.5% 16.2% 23.6% 4.8% 5.5% 1.8% 0.3% 0.2% 0.3% 0.1% 0.0% 0.0% 0.0% 0.0%
x264 [total]: encoded 137877 frames, 1.96 fps, 2605.59 kb/s, duration 19:34:16.35

Скриншот c названием фильма

Скриншоты

Убедительная просьба пожалуйста кто скачал не бросайте раздачу!!!
 GOLD TORRENT! DOWNLOAD TRAFFIC DOES NOT CONSIDER! 
Torrent: Registered [ 2020-06-07 03:09 ]   · 3ADB44EB3387594B9364150D60C801D3623588AF

Download .torrent

Download

12 KB

Status: checked
Completed: 0 times
Size: 2.35 GB
Поделиться:
terms.php
[Profile] [PM]
Display posts:    
Reply to topic

Current time is: 30-Sep 06:02

All times are UTC + 3



You cannot post new topics in this forum
You cannot reply to topics in this forum
You cannot edit your posts in this forum
You cannot delete your posts in this forum
You cannot vote in polls in this forum
You cannot attach files in this forum
You can download files in this forum