Восхождение Юпитер / Jupiter Ascending (Энди Вачовски / Andy Wachowski, Лана Вачовски / Lana Wachowski) [2015, США, Фантастика, фэнтези, боевик, приключения, BDRip-AVC] Dub + Sub Rus, Eng + Original Eng

Reply to topic
DL-List and Torrent activity
Size:  3.39 GB   |    Registered:  3 years 1 month   |    Completed:  0 times

Seeder not seen: Never

 
   
 
 
Author Message

admin ®

Gender: Male

Longevity: 3 years 2 months

Posts: 10109

Post 05-Oct-2017 05:43

[Quote]

Восхождение ЮпитерJupiter Ascending«Expand your universe»

Страна: США
Студия: Aaron Sims Company, Village Roadshow Pictures, Warner Bros. Pictures
Жанр: Фантастика, боевик, приключения
Год выпуска: 2015
Продолжительность: 02:07:34
Перевод: Профессиональный (дублированный) Blu-ray CEE
Субтитры: русские,английские
Оригинальная аудиодорожка: английский
Режиссер: Энди Вачовски / Andy Wachowski, Лана Вачовски / Lana Wachowski
В ролях: Мила Кунис, Ченнинг Татум, Дуглас Бут, Шон Бин, Эдди Редмэйн, Джеймс Д’Арси, Терри Гиллиам, Ванесса Кирби, Мария Дойл Кеннеди, Пэ Ду На
Описание: Юпитер Джонс родилась под ночным небом, и все знаки предсказывали, что девочке предстоят великие свершения. Юпитер выросла и каждый день видит во сне звезды, но просыпается в жесткой реальности, где она работает уборщицей и моет туалеты. Личная жизнь Юпитер тоже оставляет желать лучшего, пока девушка не встречает Кейна. Кейн, бывший военный охотник, прибывает на Землю, чтобы отыскать Юпитер и раскрыть девушке ее истинное предназначение. Благодаря своим генетическим особенностям Юпитер становится претенденткой невероятного наследия, способного изменить равновесие во Вселенной.
Доп. информация:
Релиз группы:
Сохранены оригинальные главы как на Bluray
Качество видео: BDRip-AVC | Восхождение Юпитер / Jupiter Ascending(2015) Blu-ray CEE| HD club
Формат видео: MKV
Видео: 1152x480 (2:40:1), 23,976 fps, 2836 Кbps, 0.214 bit/pixe
Аудио: 48 kHz, AC3 Dolby Digital, 3/2 (L,C,R,l,r) + LFE ch, ~448.00 kbps avg DUB
Аудио 2: 48 kHz, AC3 Dolby Digital, 3/2 (L,C,R,l,r) + LFE ch, ~448.00 kbps avg ENG
Формат субтитров: softsub (SRT)
Доп. информация о субтитрах: отключаемые

MediaInfo

General
Unique ID : 184819428115770389170004951900583784293 (0x8B0AED55DA7737499DDC4EEE1ECA6F65)
Complete name : E:\Мои рипы\Восхождение Юпитер\Jupiter Ascending by_IVAN@190282.mkv
Format : Matroska
Format version : Version 4 / Version 2
File size : 3.39 GiB
Duration : 2h 7mn
Overall bit rate : 3 808 Kbps
Movie name : Jupiter Ascending by_IVAN@190282
Encoded date : UTC 2016-03-03 03:23:40
Writing application : mkvmerge v8.8.0 ('Wind at my back') 64bit
Writing library : libebml v1.3.3 + libmatroska v1.4.4
Attachements : cover.jpg
DURATION : 02:06:50.102000000
NUMBER_OF_FRAMES : 1590
NUMBER_OF_BYTES : 49199
_STATISTICS_WRITING_APP : mkvmerge v8.8.0 ('Wind at my back') 64bit
_STATISTICS_WRITING_DATE_UT : 2016-03-03 03:23:40
_STATISTICS_TAGS : BPS DURATION NUMBER_OF_FRAMES NUMBER_OF_BYTES
Video
ID : 1
Format : AVC
Format/Info : Advanced Video Codec
Format profile : High@L4.1
Format settings, CABAC : Yes
Format settings, ReFrames : 14 frames
Codec ID : V_MPEG4/ISO/AVC
Duration : 2h 7mn
Bit rate : 2 836 Kbps
Width : 1 152 pixels
Height : 480 pixels
Display aspect ratio : 2.40:1
Frame rate mode : Constant
Frame rate : 23.976 fps
Color space : YUV
Chroma subsampling : 4:2:0
Bit depth : 8 bits
Scan type : Progressive
Bits/(Pixel*Frame) : 0.214
Stream size : 2.53 GiB (74%)
Title : Jupiter Ascending by_IVAN@190282
Writing library : x264 core 146 r2538kMod 121396c
Encoding settings : cabac=1 / ref=14 / deblock=1:-3:-2 / analyse=0x3:0x133 / me=umh / subme=11 / psy=1 / fade_compensate=0.00 / psy_rd=1.00:0.00 / mixed_ref=1 / me_range=48 / chroma_me=1 / trellis=2 / 8x8dct=1 / cqm=0 / deadzone=21,11 / fast_pskip=0 / chroma_qp_offset=-2 / threads=6 / lookahead_threads=6 / sliced_threads=0 / nr=0 / decimate=1 / interlaced=0 / bluray_compat=0 / constrained_intra=0 / fgo=0 / bframes=16 / b_pyramid=2 / b_adapt=2 / b_bias=0 / direct=3 / weightb=1 / open_gop=0 / weightp=2 / keyint=240 / keyint_min=23 / scenecut=40 / intra_refresh=0 / rc_lookahead=60 / rc=crf / mbtree=0 / crf=16.8000 / qcomp=0.60 / qpmin=0 / qpmax=69 / qpstep=4 / vbv_maxrate=50000 / vbv_bufsize=62500 / crf_max=0.0 / nal_hrd=none / filler=0 / ip_ratio=1.40 / pb_ratio=1.30 / aq=1:1.10
Language : English
Default : Yes
Forced : No
Color range : Limited
Color primaries : BT.709
Transfer characteristics : BT.709
Matrix coefficients : BT.709
DURATION : 02:07:34.314000000
NUMBER_OF_FRAMES : 183520
NUMBER_OF_BYTES : 2784084567
_STATISTICS_WRITING_APP : mkvmerge v8.8.0 ('Wind at my back') 64bit
_STATISTICS_WRITING_DATE_UT : 2016-03-03 03:23:40
_STATISTICS_TAGS : BPS DURATION NUMBER_OF_FRAMES NUMBER_OF_BYTES
Audio #1
ID : 2
Format : AC-3
Format/Info : Audio Coding 3
Mode extension : CM (complete main)
Format settings, Endianness : Big
Codec ID : A_AC3
Duration : 2h 7mn
Bit rate mode : Constant
Bit rate : 448 Kbps
Channel(s) : 6 channels
Channel positions : Front: L C R, Side: L R, LFE
Sampling rate : 48.0 KHz
Compression mode : Lossy
Stream size : 409 MiB (12%)
Title : Dub
Language : Russian
Default : Yes
Forced : No
Audio #2
ID : 3
Format : AC-3
Format/Info : Audio Coding 3
Mode extension : CM (complete main)
Format settings, Endianness : Big
Codec ID : A_AC3
Duration : 2h 7mn
Bit rate mode : Constant
Bit rate : 448 Kbps
Channel(s) : 6 channels
Channel positions : Front: L C R, Side: L R, LFE
Sampling rate : 48.0 KHz
Compression mode : Lossy
Stream size : 409 MiB (12%)
Title : Eng
Language : English
Default : No
Forced : No
Text #1
ID : 4
Format : UTF-8
Codec ID : S_TEXT/UTF8
Codec ID/Info : UTF-8 Plain Text
Title : Rus.forsed
Language : Russian
Default : Yes
Forced : Yes
Text #2
ID : 5
Format : UTF-8
Codec ID : S_TEXT/UTF8
Codec ID/Info : UTF-8 Plain Text
Title : Rus
Language : Russian
Default : No
Forced : No
Text #3
ID : 6
Format : UTF-8
Codec ID : S_TEXT/UTF8
Codec ID/Info : UTF-8 Plain Text
Title : Eng
Language : English
Default : No
Forced : No
Menu
00:00:00.000 : en:Chapter 1
00:08:45.024 : en:Chapter 2
00:19:31.170 : en:Chapter 3
00:31:32.974 : en:Chapter 4
00:41:42.541 : en:Chapter 5
00:49:35.639 : en:Chapter 6
00:58:29.631 : en:Chapter 7
01:09:20.030 : en:Chapter 8
01:19:07.200 : en:Chapter 9
01:29:09.427 : en:Chapter 10
01:36:08.512 : en:Chapter 11
01:43:26.575 : en:Chapter 12
01:52:58.772 : en:Chapter 13
01:57:59.489 : en:Credits

x264 log

VIDEO ENCODING
x264 [info]: frame I:1541 Avg QP:15.93 size: 77729 PSNR Mean Y:49.28 U:51.03 V:51.17 Avg:49.80 Global:49.23
x264 [info]: frame P:45819 Avg QP:16.83 size: 30471 PSNR Mean Y:47.74 U:49.86 V:50.00 Avg:48.33 Global:47.64
x264 [info]: frame B:136160 Avg QP:18.19 size: 9314 PSNR Mean Y:47.11 U:49.62 V:49.78 Avg:47.79 Global:46.98
x264 [info]: consecutive B-frames: 4.6% 5.4% 8.5% 27.1% 14.8% 23.7% 6.1% 6.5% 1.5% 0.6% 0.4% 0.6% 0.1% 0.1% 0.0% 0.0% 0.1%
x264 [total]: encoded 183520 frames, 6.57 fps, 2909.82 kb/s, duration 7:45:21.13

Знаете ли Вы,что

• Первоначально выход фильма был намечен на 20 июня 2014 года, но студия решила перенести дату премьеры на февраль 2015 года, чтобы уделить больше времени процессу пост-продакшна.
• Ондра Зелари рассматривался на роль в этом фильме.
• Джозеф Гордон-Левитт рассматривался на роль в этом фильме.
• Изначально на главную женскую роль претендовала Натали Портман, но позднее она выбыла из проекта. Также перед Милой Кунис на эту роль пробовалась Руни Мара.
• Первый фильм Энди и Ланы Вачовски в 3D-формате.
• Во время съемок съемочная группа собрала установку из шести камер (Panocam), которую разместили на вертолете. Охватываемый установкой угол составил почти 180 градусов, это позволило на стадии пост-продакшна объединить перекрывающиеся кадры и создать ощущение, что камера движется независимо от фактического пути вертолета.
• Во время подготовки к съемкам Ченнингу Татуму приходилось носить специальный загубник, чтобы изменить форму нижней челюсти. Это приспособление мешало ему закрывать рот и вызывало затруднения в те моменты, когда ему нужно было говорить.
• По словам режиссеров, объем сценария фильма составляет более 600 страниц.
• Это первый фильм Энди и Ланы Вачовски с рейтингом «PG-13».

Скриншот c названием фильма

Скриншоты

Убедительная просьба пожалуйста кто скачал не бросайте раздачу!!!
 GOLD TORRENT! DOWNLOAD TRAFFIC DOES NOT CONSIDER! 
Torrent: Registered [ 2017-10-05 05:43 ]   · B0482CC33F3ED0DE08CE1F4FC9D48E63510AEEF1

Download .torrent

Download

17 KB

Status: checked
Completed: 0 times
Size: 3.39 GB
Поделиться:
terms.php
[Profile] [PM]
Display posts:    
Reply to topic

Current time is: 27-Nov 08:13

All times are UTC + 3



You cannot post new topics in this forum
You cannot reply to topics in this forum
You cannot edit your posts in this forum
You cannot delete your posts in this forum
You cannot vote in polls in this forum
You cannot attach files in this forum
You can download files in this forum