Игрок / The Gambler (Руперт Уайатт / Rupert Wyatt) [2014, США, Триллер, драма, криминал, BDRip-AVC] Dub + Sub Rus, Eng + Original Eng

Reply to topic
DL-List and Torrent activity
Size:  2.61 GB   |    Registered:  3 years 1 month   |    Completed:  0 times

Seeder not seen: Never

 
   
 
 
Author Message

admin ®

Gender: Male

Longevity: 3 years 1 month

Posts: 10103

Post 05-Oct-2017 05:07

[Quote]

Игрок / The Gambler«Ставок больше нет»

Страна: США
Жанр: Триллер, драма, криминал
Год выпуска: 2014
Продолжительность: 01:50:58
Перевод: Профессиональный (дублированный) [BD CEE]
Субтитры: русские,английские
Оригинальная аудиодорожка: английский
Режиссер: Руперт Уайатт / Rupert Wyatt
В ролях: Марк Уолберг, Джон Гудман, Бри Ларсон, Майкл Кеннет Уильямс, Джессика Лэнг, Гриффин Кливлэнд, Омар Лейва, Энтони Келли, Стив Парк, Эмори Коэн...
Описание: Джим Беннетт - рисковый парень. Днем он - гениальный писатель и отличный преподаватель, ночью - заядлый игрок. Он глубоко увяз в мире, где закон - пустой звук, и однажды ставит на кон все, включая собственную жизнь. Те, кому он должен, опасны, а помочь ему может только тот, кто еще опаснее. Достоин ли второго шанса человек, проигравший самого себя? А, если да, то - во сколько это ему обойдется?
Доп. информация:
Релиз группы:
Сохранены оригинальные главы как на Bluray
Качество видео: BDRip-AVC | Игрок / The Gambler (2014) Blu-ray CEE 1080p AVC DD5.1| HD Club|
Формат видео: MKV
Видео: 1152x480 (2:40:1), 23,976 fps, 2409 Кbps, 0.182 bit/pixe
Аудио: 48 kHz, AC3 Dolby Digital, 3/2 (L,C,R,l,r) + LFE ch, ~448.00 kbps avg | DUB
Аудио 2: 48 kHz, AC3 Dolby Digital, 3/2 (L,C,R,l,r) + LFE ch, ~448.00 kbps avg| ENG
Формат субтитров: softsub (SRT)
Доп. информация о субтитрах: отключаемые

Знаете ли Вы что

• Ради съемок в фильме Марк Уолберг похудел на 25 килограммов.

MediaInfo

General
Unique ID : 241548022325168642245668402557234800744 (0xB5B874F8BB8166D2AEA8A39ACEE56868)
Complete name : E:\Мои рипы\Игрок\The Gambler by_IVAN@.190282.mkv
Format : Matroska
Format version : Version 4 / Version 2
File size : 2.61 GiB
Duration : 1h 50mn
Overall bit rate : 3 372 Kbps
Movie name : The Gambler by_IVAN@190282
Encoded date : UTC 2016-02-26 07:47:31
Writing application : mkvmerge v8.8.0 ('Wind at my back') 64bit
Writing library : libebml v1.3.3 + libmatroska v1.4.4
Attachements : cover.jpg
DURATION : 01:42:42.115000000
NUMBER_OF_FRAMES : 1470
NUMBER_OF_BYTES : 46363
_STATISTICS_WRITING_APP : mkvmerge v8.8.0 ('Wind at my back') 64bit
_STATISTICS_WRITING_DATE_UT : 2016-02-26 07:47:31
_STATISTICS_TAGS : BPS DURATION NUMBER_OF_FRAMES NUMBER_OF_BYTES
Video
ID : 1
Format : AVC
Format/Info : Advanced Video Codec
Format profile : High@L4.1
Format settings, CABAC : Yes
Format settings, ReFrames : 14 frames
Codec ID : V_MPEG4/ISO/AVC
Duration : 1h 50mn
Bit rate : 2 409 Kbps
Width : 1 152 pixels
Height : 480 pixels
Display aspect ratio : 2.40:1
Frame rate mode : Constant
Frame rate : 23.976 fps
Color space : YUV
Chroma subsampling : 4:2:0
Bit depth : 8 bits
Scan type : Progressive
Bits/(Pixel*Frame) : 0.182
Stream size : 1.87 GiB (71%)
Title : The Gambler by_IVAN@190282
Writing library : x264 core 146 r2538kMod 121396c
Encoding settings : cabac=1 / ref=14 / deblock=1:-3:-3 / analyse=0x3:0x113 / me=umh / subme=11 / psy=1 / fade_compensate=0.00 / psy_rd=1.00:0.15 / mixed_ref=1 / me_range=48 / chroma_me=1 / trellis=2 / 8x8dct=1 / cqm=0 / deadzone=21,11 / fast_pskip=0 / chroma_qp_offset=0 / threads=6 / lookahead_threads=6 / sliced_threads=0 / slices=10 / nr=0 / decimate=1 / interlaced=0 / bluray_compat=0 / constrained_intra=0 / fgo=0 / bframes=16 / b_pyramid=2 / b_adapt=2 / b_bias=0 / direct=3 / weightb=1 / open_gop=1 / weightp=2 / keyint=240 / keyint_min=23 / scenecut=40 / intra_refresh=0 / rc_lookahead=40 / rc=crf / mbtree=0 / crf=17.0000 / qcomp=0.60 / qpmin=0 / qpmax=69 / qpstep=4 / vbv_maxrate=50000 / vbv_bufsize=62500 / crf_max=0.0 / nal_hrd=none / filler=0 / ip_ratio=1.40 / pb_ratio=1.30 / aq=1:1.00
Default : Yes
Forced : No
Color range : Limited
Color primaries : BT.709
Transfer characteristics : BT.709
Matrix coefficients : BT.709
Audio #1
ID : 2
Format : AC-3
Format/Info : Audio Coding 3
Mode extension : CM (complete main)
Format settings, Endianness : Big
Codec ID : A_AC3
Duration : 1h 50mn
Bit rate mode : Constant
Bit rate : 448 Kbps
Channel(s) : 6 channels
Channel positions : Front: L C R, Side: L R, LFE
Sampling rate : 48.0 KHz
Compression mode : Lossy
Stream size : 356 MiB (13%)
Title : Dub
Language : Russian
Default : Yes
Forced : No
Audio #2
ID : 3
Format : AC-3
Format/Info : Audio Coding 3
Mode extension : CM (complete main)
Format settings, Endianness : Big
Codec ID : A_AC3
Duration : 1h 50mn
Bit rate mode : Constant
Bit rate : 448 Kbps
Channel(s) : 6 channels
Channel positions : Front: L C R, Side: L R, LFE
Sampling rate : 48.0 KHz
Compression mode : Lossy
Stream size : 356 MiB (13%)
Title : Eng
Language : English
Default : No
Forced : No
Text #1
ID : 4
Format : UTF-8
Codec ID : S_TEXT/UTF8
Codec ID/Info : UTF-8 Plain Text
Title : Rus
Language : Russian
Default : No
Forced : No
Text #2
ID : 5
Format : UTF-8
Codec ID : S_TEXT/UTF8
Codec ID/Info : UTF-8 Plain Text
Title : Eng
Language : English
Default : No
Forced : No
Menu
00:00:00.000 : en:Chapter 1
00:08:21.375 : en:Chapter 2
00:16:46.422 : en:Chapter 3
00:25:22.020 : en:Chapter 4
00:29:16.254 : en:Chapter 5
00:34:09.422 : en:Chapter 6
00:45:08.455 : en:Chapter 7
00:51:00.515 : en:Chapter 8
00:59:08.336 : en:Chapter 9
01:06:22.728 : en:Chapter 10
01:12:39.229 : en:Chapter 11
01:21:58.663 : en:Chapter 12
01:24:17.093 : en:Chapter 13
01:31:11.757 : en:Chapter 14
01:35:35.563 : en:Chapter 15
01:46:04.441 : en:Chapter 16

x264 log

VIDEO ENCODING
x264 [info]: frame I:829 Avg QP:15.57 size: 77878
x264 [info]: frame P:34644 Avg QP:16.17 size: 27547
x264 [info]: frame B:109142 Avg QP:18.27 size: 8960
x264 [info]: consecutive B-frames: 2.3% 5.3% 8.8% 14.9% 16.3% 31.0% 9.2% 4.9% 3.1% 1.9% 1.5% 1.0% 1.0% 1.0% 0.4% 0.2% 0.3%
x264 [info]: kb/s:2472.32
x264 [total]: encoded 159647 frames, 6.68 fps, 2472.32 kb/s, duration 6:38:20.23

Скриншот c названием фильма

Скриншоты

Убедительная просьба пожалуйста кто скачал не бросайте раздачу!!!
 GOLD TORRENT! DOWNLOAD TRAFFIC DOES NOT CONSIDER! 
Torrent: Registered [ 2017-10-05 05:08 ]   · EBA9FABA1EE9D4FFBE49A7CE186D40F97EE0A425

Download .torrent

Download

14 KB

Status: checked
Completed: 0 times
Size: 2.61 GB
Поделиться:
terms.php
[Profile] [PM]
Display posts:    
Reply to topic

Current time is: 25-Nov 10:38

All times are UTC + 3



You cannot post new topics in this forum
You cannot reply to topics in this forum
You cannot edit your posts in this forum
You cannot delete your posts in this forum
You cannot vote in polls in this forum
You cannot attach files in this forum
You can download files in this forum