Макс / Max (Боаз Якин / Boaz Yakin) [2015, США, Приключения, семейный, BDRip-AVC] MVO + Sub Rus, Eng + Original Eng

Reply to topic
DL-List and Torrent activity
Size:  3.9 GB   |    Registered:  5 months 22 days   |    Completed:  0 times

Seeder not seen: Never

 
   
 
 
Author Message

admin ®

Gender: Male

Longevity: 3 years 2 months

Posts: 10110

Post 05-Oct-2017 05:04

[Quote]

МаксMax«Best Friend. Hero. Marine»

Страна: США
Жанр: Приключения, семейный
Год выпуска: 2015
Продолжительность: 01:50:57
Перевод: Профессиональный (многоголосый закадровый) BD CEE
Субтитры: русские,английские
Оригинальная аудиодорожка: английский
Режиссер: Боаз Якин / Boaz Yakin
В ролях: Томас Хейден Чёрч, Джош Уиггинс, Люк Клеинтенк, Лорен Грэм, Робби Амелл, Mia Xitlali, Dejon LaQuake, Джей Эрнандес, Оуэн Харн, Джозеф Джулиан Сория
Описание: Фильм рассказывает историю о собаке, которая прошла войну в Афганистане, помогая американским солдатам. Но после того, как она получает тяжелое ранение, ставящее крест на ее дальнейшей службе, проводник принимает решение - забрать ее в США и поселить ее в своем доме вместе со своей семьей...
Доп. информация:
Релиз группы:
Сохранены оригинальные главы как на Bluray
Качество видео: BDRip-AVC | Макс / Max (2015) Blu-ray Disc -BLUEBIRD|BLUEBIRD|
Формат видео: MKV
Видео: 1152x480 (2:40:1), 23,976 fps, 4033 Кbps, 0.304 bit/pixe
Аудио: 48 kHz, AC3 Dolby Digital, 3/2 (L,C,R,l,r) + LFE ch, ~448.00 kbps avg MVO
Аудио 2: 48 kHz, AC3 Dolby Digital, 3/2 (L,C,R,l,r) + LFE ch, ~448.00 kbps avg ENG
Формат субтитров: softsub (SRT)
Доп. информация о субтитрах: отключаемые

MediaInfo

General
Unique ID : 254406794163649518261516645680084278070 (0xBF64F75F0353A26FB2BAAB87BDDDDB36)
Complete name : D:\Мои рипы\Макс\Max by_IVAN@190282.mkv
Format : Matroska
Format version : Version 4 / Version 2
File size : 3.90 GiB
Duration : 1h 50mn
Overall bit rate : 5 027 Kbps
Encoded date : UTC 2016-02-29 12:23:10
Writing application : mkvmerge v8.8.0 ('Wind at my back') 64bit
Writing library : libebml v1.3.3 + libmatroska v1.4.4
Attachements : cover.jpg
DURATION : 01:49:43.660000000
NUMBER_OF_FRAMES : 1261
NUMBER_OF_BYTES : 45083
_STATISTICS_WRITING_APP : mkvmerge v8.8.0 ('Wind at my back') 64bit
_STATISTICS_WRITING_DATE_UT : 2016-02-29 12:23:10
_STATISTICS_TAGS : BPS DURATION NUMBER_OF_FRAMES NUMBER_OF_BYTES
Video
ID : 1
Format : AVC
Format/Info : Advanced Video Codec
Format profile : High@L4.1
Format settings, CABAC : Yes
Format settings, ReFrames : 11 frames
Codec ID : V_MPEG4/ISO/AVC
Duration : 1h 50mn
Bit rate : 4 031 Kbps
Width : 1 152 pixels
Height : 480 pixels
Display aspect ratio : 2.40:1
Frame rate mode : Constant
Frame rate : 23.976 fps
Color space : YUV
Chroma subsampling : 4:2:0
Bit depth : 8 bits
Scan type : Progressive
Bits/(Pixel*Frame) : 0.304
Stream size : 3.12 GiB (80%)
Title : Max by_IVAN@190282
Writing library : x264 core 148 r2597kMod e86f3a1
Encoding settings : cabac=1 / ref=11 / deblock=1:-3:-3 / analyse=0x3:0x133 / me=umh / subme=11 / psy=1 / fade_compensate=0.00 / psy_rd=1.00:0.05 / mixed_ref=1 / me_range=48 / chroma_me=1 / trellis=2 / 8x8dct=1 / cqm=0 / deadzone=21,11 / fast_pskip=0 / chroma_qp_offset=-3 / threads=6 / lookahead_threads=6 / sliced_threads=0 / nr=0 / decimate=1 / interlaced=0 / bluray_compat=0 / constrained_intra=0 / fgo=0 / bframes=16 / b_pyramid=2 / b_adapt=2 / b_bias=0 / direct=3 / weightb=1 / open_gop=0 / weightp=2 / keyint=240 / keyint_min=23 / scenecut=40 / intra_refresh=0 / rc_lookahead=60 / rc=crf / mbtree=0 / crf=16.8000 / qcomp=0.60 / qpmin=0 / qpmax=69 / qpstep=4 / vbv_maxrate=50000 / vbv_bufsize=62500 / crf_max=0.0 / nal_hrd=none / filler=0 / ip_ratio=1.40 / pb_ratio=1.30 / aq=2:1.10
Language : English
Default : Yes
Forced : No
Color range : Limited
Color primaries : BT.709
Transfer characteristics : BT.709
Matrix coefficients : BT.709
DURATION : 01:50:57.818000000
NUMBER_OF_FRAMES : 159628
NUMBER_OF_BYTES : 3436630694
_STATISTICS_WRITING_APP : mkvmerge v8.8.0 ('Wind at my back') 64bit
_STATISTICS_WRITING_DATE_UT : 2016-02-29 12:23:10
_STATISTICS_TAGS : BPS DURATION NUMBER_OF_FRAMES NUMBER_OF_BYTES
Audio #1
ID : 2
Format : AC-3
Format/Info : Audio Coding 3
Mode extension : CM (complete main)
Format settings, Endianness : Big
Codec ID : A_AC3
Duration : 1h 50mn
Bit rate mode : Constant
Bit rate : 448 Kbps
Channel(s) : 6 channels
Channel positions : Front: L C R, Side: L R, LFE
Sampling rate : 48.0 KHz
Compression mode : Lossy
Stream size : 356 MiB (9%)
Title : Mvo BD CEE
Default : Yes
Forced : No
Audio #2
ID : 3
Format : AC-3
Format/Info : Audio Coding 3
Mode extension : CM (complete main)
Format settings, Endianness : Big
Codec ID : A_AC3
Duration : 1h 50mn
Bit rate mode : Constant
Bit rate : 448 Kbps
Channel(s) : 6 channels
Channel positions : Front: L C R, Side: L R, LFE
Sampling rate : 48.0 KHz
Compression mode : Lossy
Stream size : 356 MiB (9%)
Title : Eng
Language : English
Default : No
Forced : No
Text #1
ID : 4
Format : UTF-8
Codec ID : S_TEXT/UTF8
Codec ID/Info : UTF-8 Plain Text
Title : Rus forsed
Default : Yes
Forced : Yes
Text #2
ID : 5
Format : UTF-8
Codec ID : S_TEXT/UTF8
Codec ID/Info : UTF-8 Plain Text
Title : Rus
Default : No
Forced : No
Text #3
ID : 6
Format : UTF-8
Codec ID : S_TEXT/UTF8
Codec ID/Info : UTF-8 Plain Text
Title : Eng
Language : English
Default : No
Forced : No
Menu
00:00:00.000 : en:Chapter 1
00:09:15.763 : en:Chapter 2
00:20:30.437 : en:Chapter 3
00:31:01.860 : en:Chapter 4
00:40:28.384 : en:Chapter 5
00:50:32.738 : en:Chapter 6
00:59:04.541 : en:Chapter 7
01:09:11.856 : en:Chapter 8
01:20:37.082 : en:Chapter 9
01:30:08.736 : en:Chapter 10
01:40:27.271 : en:Chapter 11
01:44:01.735 : en:Chapter 12

x264 log

VIDEO ENCODING
x264 [info]: frame I:1137 Avg QP:15.95 size:109261 PSNR Mean Y:46.89 U:50.03 V:50.04 Avg:47.70 Global:46.83
x264 [info]: frame P:44687 Avg QP:17.82 size: 40227 PSNR Mean Y:45.13 U:48.48 V:48.66 Avg:45.98 Global:44.95
x264 [info]: frame B:113804 Avg QP:19.63 size: 13311 PSNR Mean Y:44.50 U:48.26 V:48.39 Avg:45.42 Global:44.22
x264 [info]: consecutive B-frames: 7.0% 6.3% 9.9% 28.6% 15.3% 23.8% 4.0% 1.9% 1.0% 0.5% 0.4% 0.6% 0.2% 0.1% 0.1% 0.3% 0.1%
x264 [total]: encoded 159628 frames, 6.25 fps, 4129.44 kb/s, duration 7:05:30.50

Скриншот c названием фильма

Скриншоты

Убедительная просьба пожалуйста кто скачал не бросайте раздачу!!!
 GOLD TORRENT! DOWNLOAD TRAFFIC DOES NOT CONSIDER! 
Torrent: Registered [ 2020-06-06 07:41 ]   · 34E95767E271F87753697F8FF6AF6835A9295D44

Download .torrent

Download

20 KB

Status: checked
Completed: 0 times
Size: 3.9 GB
Поделиться:
terms.php
[Profile] [PM]
Display posts:    
Reply to topic

Current time is: 28-Nov 17:27

All times are UTC + 3



You cannot post new topics in this forum
You cannot reply to topics in this forum
You cannot edit your posts in this forum
You cannot delete your posts in this forum
You cannot vote in polls in this forum
You cannot attach files in this forum
You can download files in this forum