Брюс Ли: Рождение Дракона / Birth of the Dragon (2016) WEB-DLRip-AVC от ExKinoRay | iTunes

Reply to topic
DL-List and Torrent activity
Size:  745 MB   |    Registered:  2 years 10 months   |    Completed:  0 times
Seeders:  6  [  0 KB/s  ]   Leechers:  6  [  0 KB/s  ]   Show peers in full details
 
   
 
 
Author Message

admin ®

Gender: Male

Longevity: 3 years

Posts: 10018

Post 08-Nov-2017 10:46

[Quote]

Информация о фильме
Название: Брюс Ли: Рождение Дракона
Оригинальное название: Birth of the Dragon
Год выхода: 2016
Жанр: боевик, драма, биография
Режиссер: Джордж Нолфи
В ролях: Филип Нг, Ся Юй, Ван Сиань, Юй Хай, У Юэ, Билли Магнуссен, Стивен Холмс, Райли Вуд, Саймон Инь, Терри Чен
О фильме :
Данный фильм, это история восхождения легенды боевого искусства Брюса Ли, основанная на реальных событиях. Уже к тридцати годам он добился невероятных успехов, когда такие феноменальные люди умирают молодыми, они навсегда входят в мировую историю и становятся легендой. За плечами Брюса, более чем два десятка кино-картин, но мировую славу принесли ему всего пять фильмов, последний из которых вышел спустя тридцать лет после его смерти. История начинается с того, что молодой Брюс Ли приезжает в США где в Сан-Франциско открывает собственную школу восточных единоборств. Боец Шаолиня Вон Джак Мань, которому не нравится то, что Брюс тренирует белых, вызывает мастера на бой, договор таков: Кто проиграет, тот закрывает свою школу.

Страна: Китай, Канада, США
Продолжительность: 01:31:33
Перевод: Профессиональный (дублированный) iTunes
Файл
Формат: MKV
Качество: WEB-DLRip-AVC
Видео: MPEG-4 AVC, 768x320, ~ 1061 Кбит/с
Аудио: AAC-LC, 2 ch, ~ 76 Кбит/с

MI

Общее
Уникальный идентификатор : 248675533930188368501910585216897622292 (0xBB152A6CD6FC6EA88F2B3DCF0F9BA114)
Полное имя : D:MOVIESBirth.of.the.Dragon.2O17.ExKinoRay.mkv
Формат : Matroska
Версия формата : Version 4 / Version 2
Размер файла : 745 Мбайт
Продолжительность : 1 ч. 31 м.
Общий поток : 1137 Кбит/сек
Дата кодирования : UTC 2017-11-07 15:35:23
Программа кодирования : mkvmerge v15.0.0 ('Duel with the Devil') 64-bit
Библиотека кодирования : libebml v1.3.5 + libmatroska v1.4.5
Видео
Идентификатор : 1
Формат : AVC
Формат/Информация : Advanced Video Codec
Профиль формата : High@L4.1
Параметр CABAC формата : Да
Параметр RefFrames формата : 10 кадров
Идентификатор кодека : V_MPEG4/ISO/AVC
Продолжительность : 1 ч. 31 м.
Битрейт : 1061 Кбит/сек
Ширина : 768 пикселей
Высота : 320 пикселей
Соотношение сторон : 2,40:1
Режим частоты кадров : Постоянный
Частота кадров : 25,000 кадров/сек
Цветовое пространство : YUV
Субдискретизация насыщенности : 4:2:0
Битовая глубина : 8 бит
Тип развёртки : Прогрессивная
Бит/(Пиксели*Кадры) : 0.173
Размер потока : 694 Мбайт (93%)
Библиотека кодирования : x264 core 152 r2851kMod ba24899
Настройки программы : cabac=1 / ref=10 / deblock=1:-3:-2 / analyse=0x3:0x133 / me=umh / subme=11 / psy=1 / fade_compensate=0.00 / psy_rd=1.00:0.10 / mixed_ref=1 / me_range=32 / chroma_me=1 / trellis=2 / 8x8dct=1 / cqm=0 / deadzone=21,11 / fast_pskip=0 / chroma_qp_offset=-3 / threads=6 / lookahead_threads=1 / sliced_threads=0 / nr=0 / decimate=0 / interlaced=0 / bluray_compat=0 / constrained_intra=0 / bframes=10 / b_pyramid=2 / b_adapt=2 / b_bias=0 / direct=3 / weightb=1 / open_gop=0 / weightp=2 / keyint=250 / keyint_min=24 / scenecut=40 / intra_refresh=0 / rc_lookahead=40 / rc=2pass / mbtree=1 / bitrate=1061 / ratetol=1.0 / qcomp=0.60 / qpmin=0 / qpmax=69 / qpstep=4 / cplxblur=20.0 / qblur=0.5 / vbv_maxrate=50000 / vbv_bufsize=62500 / nal_hrd=none / filler=0 / ip_ratio=1.40 / aq=3:1.00
Default : Да
Forced : Нет
Аудио
Идентификатор : 2
Формат : AAC
Формат/Информация : Advanced Audio Codec
Профиль формата : LC
Идентификатор кодека : A_AAC
Продолжительность : 1 ч. 31 м.
Битрейт : 76,0 Кбит/сек
Каналы : 2 канала
Расположение каналов : Front: L R
Частота : 48,0 КГц
Частота кадров : 46,875 кадров/сек (1024 SPF)
Метод сжатия : С потерями
Задержка видео : 9 мс.
Размер потока : 49,8 Мбайт (7%)
Default : Да
Forced : Нет

Скриншоты


 GOLD TORRENT! DOWNLOAD TRAFFIC DOES NOT CONSIDER! 
Torrent: Registered [ 2017-11-08 10:46 ]   · 5FC4846CEF723F7C3C9A667A234A8E9E220FD0FA

Download .torrent

Download

16 KB

Status: checked
Completed: 0 times
Size: 745 MB
Поделиться:
terms.php
[Profile] [PM]
Display posts:    
Reply to topic

Current time is: 30-Sep 07:01

All times are UTC + 3



You cannot post new topics in this forum
You cannot reply to topics in this forum
You cannot edit your posts in this forum
You cannot delete your posts in this forum
You cannot vote in polls in this forum
You cannot attach files in this forum
You can download files in this forum