Вспомнить всё / Total Recall (Лен Уайзман / Len Wiseman) [2012, США, Канада, фантастика, боевик, триллер, приключения, BDRip-AVC] [Расширенная версия / Extended Cut] Dub + Sub Rus + Original Eng

Reply to topic
DL-List and Torrent activity
Size:  2.9 GB   |    Registered:  2 years 11 months   |    Completed:  0 times
Seeders:  1  [  0 KB/s  ]   Show peers in full details
 
   
 
 
Author Message

admin ®

Gender: Male

Longevity: 2 years 11 months

Posts: 10016

Post 05-Oct-2017 04:37

[Quote]

Вспомнить всёTotal RecallРасширенная версия / Extended Cut«Ты то, что ты помнишь»
Страна: США, Канада
Жанр: фантастика, боевик, триллер, приключения
Год выпуска: 2012
Продолжительность: 02:10:16
Перевод: Профессиональный (дублированный) [Лицензия] Blu-ray CEE
Субтитры: русские,украинские,английские
Оригинальная аудиодорожка: английский
Режиссер: Лен Уайзман / Len Wiseman
В ролях: Колин Фаррелл, Кейт Бекинсейл, Джессика Бил, Брайан Крэнстон, Джон Чо, Букем Вудбайн, Билл Найи, Уилл Юн Ли, Милтон Барнс, Джеймс Макгоун, Натали Лисинска, Майкл Терриоль
Описание: Он — обычный рабочий-строитель, живущий в маленькой квартирке в захудалом районе города будущего где-то в Новой Азии. Хотя собственная жизнь его в целом устраивает, он не может избавиться от чувства, что ему хочется чего-то большего. Потребность в новых будоражащих впечатлениях приводит его в офис компании «Вспомнить всё», имплантирующей в память своих клиентов воспоминания-фантазии, которые они могут получить не рискуя при этом пережить сами события в реальности. Пока герой выбирает, какие именно воспоминания ему приобрести, отряд спецназа штурмует комнату, где он находится, и уже было берет его под арест. К своему собственному удивлению, он молниеносно уничтожает весь отряд при помощи невероятных бойцовских навыков, о владении которыми он и не подозревал…
Доп. информация:

Качество видео: BDRip-AVC |Вспомнить всё / Total Recall (2012) 1080p BD-Remux|
Формат видео: MKV
Видео: 1036 x 432 (2:40:1) at 23.976 fps AVC at 2286 Кбит/сек
Аудио: AC3 Dolby Digital; 448 kbps; 6 Ch; 48 kHz (Rus)
Аудио 2: AC3 Dolby Digital; 448 kbps; 6 Ch; 48 kHz (Eng)
Формат субтитров: softsub (SRT)
Доп. информация о субтитрах: отключаемые

MediaInfo

General
Unique ID : 209282552699334548278097941625989214136 (0x9D725A7F8280D8DEAF14028FACE7AFB8)
Complete name : F:\Фильмы\Вспомнить все\Vspomnit.vse.2012.BDRip-AVC.H264.AC3.mkv
Format : Matroska
Format version : Version 2
File size : 2.90 GiB
Duration : 2h 10mn
Overall bit rate : 3 182 Kbps
Encoded date : UTC 2012-11-10 15:29:55
Writing application : mkvmerge v5.7.0 ('The Whirlwind') built on Jul 8 2012 20:08:51
Writing library : libebml v1.2.3 + libmatroska v1.3.0
Video
ID : 1
Format : AVC
Format/Info : Advanced Video Codec
Format profile : High@L4.1
Format settings, CABAC : Yes
Format settings, ReFrames : 9 frames
Codec ID : V_MPEG4/ISO/AVC
Duration : 2h 10mn
Bit rate : 2 286 Kbps
Width : 1 036 pixels
Height : 432 pixels
Display aspect ratio : 2.40:1
Frame rate mode : Constant
Frame rate : 23.976 fps
Color space : YUV
Chroma subsampling : 4:2:0
Bit depth : 8 bits
Scan type : Progressive
Bits/(Pixel*Frame) : 0.213
Stream size : 2.02 GiB (70%)
Title : Вспомнить всё / Total Recall [Extended Cut] (2012) BDRip
Writing library : x264 core 120 r2146 bcd41db
Encoding settings : cabac=1 / ref=9 / deblock=1:-3:-2 / analyse=0x3:0x133 / me=umh / subme=9 / psy=1 / psy_rd=1.00:0.00 / mixed_ref=1 / me_range=64 / chroma_me=1 / trellis=1 / 8x8dct=1 / cqm=0 / deadzone=21,11 / fast_pskip=0 / chroma_qp_offset=-4 / threads=12 / sliced_threads=0 / nr=0 / decimate=0 / interlaced=0 / bluray_compat=0 / constrained_intra=0 / bframes=13 / b_pyramid=2 / b_adapt=2 / b_bias=0 / direct=3 / weightb=1 / open_gop=0 / weightp=2 / keyint=240 / keyint_min=24 / scenecut=40 / intra_refresh=0 / rc_lookahead=40 / rc=2pass / mbtree=0 / bitrate=2286 / ratetol=1.0 / qcomp=0.60 / qpmin=0 / qpmax=69 / qpstep=4 / cplxblur=20.0 / qblur=0.5 / vbv_maxrate=62500 / vbv_bufsize=50000 / nal_hrd=none / ip_ratio=1.40 / pb_ratio=1.30 / aq=1:0.70
Language : English
Default : Yes
Forced : No
Audio #1
ID : 2
Format : AC-3
Format/Info : Audio Coding 3
Mode extension : CM (complete main)
Format settings, Endianness : Big
Codec ID : A_AC3
Duration : 2h 10mn
Bit rate mode : Constant
Bit rate : 448 Kbps
Channel(s) : 6 channels
Channel positions : Front: L C R, Side: L R, LFE
Sampling rate : 48.0 KHz
Bit depth : 16 bits
Compression mode : Lossy
Stream size : 417 MiB (14%)
Title : Дубляж (BD EUR) AC3 5.1 @ 448 kbps
Language : Russian
Default : Yes
Forced : Yes
Audio #2
ID : 3
Format : AC-3
Format/Info : Audio Coding 3
Mode extension : CM (complete main)
Format settings, Endianness : Big
Codec ID : A_AC3
Duration : 2h 10mn
Bit rate mode : Constant
Bit rate : 448 Kbps
Channel(s) : 6 channels
Channel positions : Front: L C R, Side: L R, LFE
Sampling rate : 48.0 KHz
Bit depth : 16 bits
Compression mode : Lossy
Stream size : 417 MiB (14%)
Title : Оригинал AC3 5.1 @ 448 kbps
Language : English
Default : No
Forced : Yes
Text #1
ID : 4
Format : UTF-8
Codec ID : S_TEXT/UTF8
Codec ID/Info : UTF-8 Plain Text
Title : Full, PSDH (Voronin)
Language : Russian
Default : Yes
Forced : No
Text #2
ID : 5
Format : UTF-8
Codec ID : S_TEXT/UTF8
Codec ID/Info : UTF-8 Plain Text
Title : Forced (Voronin)
Language : Russian
Default : No
Forced : No
Text #3
ID : 6
Format : UTF-8
Codec ID : S_TEXT/UTF8
Codec ID/Info : UTF-8 Plain Text
Title : Full (Voronin)
Language : English
Default : No
Forced : No
Text #4
ID : 7
Format : UTF-8
Codec ID : S_TEXT/UTF8
Codec ID/Info : UTF-8 Plain Text
Title : Forced (sociolog_melvas)
Language : Ukrainian
Default : No
Forced : Yes
Menu
00:00:00.000 : en:00:00:00.000
00:08:45.775 : en:00:08:45.775
00:18:00.705 : en:00:18:00.705
00:24:13.243 : en:00:24:13.243
00:31:19.878 : en:00:31:19.878
00:39:54.267 : en:00:39:54.267
00:45:38.819 : en:00:45:38.819
00:49:45.607 : en:00:49:45.607
00:58:12.280 : en:00:58:12.280
01:05:40.186 : en:01:05:40.186
01:15:06.960 : en:01:15:06.960
01:21:05.110 : en:01:21:05.110
01:27:23.112 : en:01:27:23.112
01:37:45.776 : en:01:37:45.776
01:43:17.649 : en:01:43:17.649
01:51:29.682 : en:01:51:29.682

Скриншот c названием фильма

Скриншоты

 GOLD TORRENT! DOWNLOAD TRAFFIC DOES NOT CONSIDER! 
Torrent: Registered [ 2017-10-05 04:37 ]   · 3370864C87A62B36C9B48368A7B118D5F23B586B

Download .torrent

Download

15 KB

Status: checked
Completed: 0 times
Size: 2.9 GB
Поделиться:
terms.php
[Profile] [PM]
Display posts:    
Reply to topic

Current time is: 18-Sep 12:51

All times are UTC + 3



You cannot post new topics in this forum
You cannot reply to topics in this forum
You cannot edit your posts in this forum
You cannot delete your posts in this forum
You cannot vote in polls in this forum
You cannot attach files in this forum
You can download files in this forum