Одарённая / Gifted (2017) DVD9 | Custom

Reply to topic
DL-List and Torrent activity
Size:  6.83 GB   |    Registered:  2 years 10 months   |    Completed:  0 times
Seeders:  7  [  0 KB/s  ]   Leechers:  6  [  0 KB/s  ]   Show peers in full details
 
   
 
 
Author Message

admin ®

Gender: Male

Longevity: 2 years 11 months

Posts: 10017

Post 08-Nov-2017 00:25

[Quote]

Название фильма:Одарённая
Оригинальное название: Gifted
Год выпуска: 2017
Производство: США / Fox Searchlight Pictures, TSG Entertainment, FilmNation Entertainment, Grade A Entertainment
Жанр: Драма
Режиссер: Марк Уэбб
Продюсеры: Энди Коэн, Карен Ландер, Молли Аллен
Актеры: Крис Эванс, МакКенна Грейс, Линдси Дункан, Дженни Слейт, Октавия Спенсер, Майкл Кендалл Каплан, Джон М. Джексон, Гленн Пламмер, Джон Финн, Элизабет Марвел
Описание:
Фрэнк Адлер живет в прибрежном городке во Флориде и воспитывает в одиночку свою необычайно одаренную племянницу Мэри. Но планы парня о спокойной школьной жизни для девочки рушатся, когда о математических способностях ребенка узнает грозная мать Фрэнка Эвелин. У бабушки свои представления о будущем внучки, и ради этого она готова даже разлучить Мэри с Фрэнком.
Перевод: Дублированный
Субтитры: Английские, русские-Дата мировой премьеры: 7 апреля 2017
Дата российской премьеры: 1 июня 2017, «Двадцатый Век Фокс СНГ»
-Продолжительность: 01:41:04
Качество видео: DVD9
Видео: MPEG-2, 720x480@853x480 (NTSC 16:9), ~5900 Кбит/сек
Аудио 1: AC3 5.1, 448 Кбит/сек [Английский - оригинал]
Аудио 2: AC3 5.1, 384 Кбит/сек [Английский - описательный]
Аудио 3: AC3 5.1, 448 Кбит/сек [Русский - дублированный]
Доп. материалы: Удалённые Сцены, Рекламные Ролики, Галерея, Театральный Трейлер, Ролики

DVDInfo:

Title: Gifted (2017) DVD9 NTSC
Size: 6.83 Gb ( 7 163 412,00 KBytes ) - DVD-9
Enabled regions: 1, 2, 3, 4, 5, 6, 7, 8
VTS_01 :
Play Length: 01:41:04
Video: NTSC 16:9 (720x480) VBR, Auto Letterboxed
Audio:
English (Dolby AC3, 6 ch)
English (Dolby AC3, 6 ch)
Russian (Dolby AC3, 6 ch)
Subtitles:
English
Russian
VTS_02 :
Play Length: 00:00:12
Video: NTSC 16:9 (720x480) VBR, Auto Letterboxed
Audio:
English (Dolby AC3, 6 ch)
VTS_03 :
Play Length: 00:00:02
Video: NTSC 16:9 (720x480) VBR, Auto Pan&Scan
Audio:
Not specified (Dolby AC3, 2 ch)
VTS_04 :
Play Length: 00:00:01
Video: NTSC 16:9 (720x480) VBR, Auto Pan&Scan
Audio:
Not specified (Dolby AC3, 2 ch)
VTS_05 :
Play Length: 00:00:00+{00:00:00}+00:00:02+{00:00:00}+{00:00:00}+{00:00:00}+00:00:00+{00:00:00}+00:00:00+{00:00:00}
Video: NTSC 16:9 (720x480) VBR, Auto Pan&Scan
Audio:
Not specified (Dolby AC3, 2 ch)
VTS_06 :
Play Length: 00:00:01
Video: NTSC 16:9 (720x480) VBR, Auto Letterboxed
VTS_07 :
Play Length: 00:00:00+00:00:10+00:00:42
Video: NTSC 16:9 (720x480) VBR, Auto Pan&Scan
Audio:
Not specified (Dolby AC3, 2 ch)
Subtitles:
Not specified
VTS_08 :
Play Length: 00:02:30
Video: NTSC 16:9 (720x480) VBR, Auto Letterboxed
Audio:
English (Dolby AC3, 6 ch)
VTS_09 :
Play Length: 00:00:00+{00:00:00}+{00:00:00}+{00:00:00}
Video: NTSC 16:9 (720x480) VBR, Auto Letterboxed
VTS_10 :
Play Length: 00:01:21+00:00:00+{00:00:00}+00:02:37+{00:00:00}+{00:00:00}+{00:00:00}+{00:00:00}+{00:00:00}+{00:00:01}+{00:00:00}+{00:00:00}+{00:01:21}+{00:00:00}+{00:00:00}+{00:02:37}+{00:00:00}+{00:00:00}+00:02:25+{00:00:00}+{00:00:00}+00:02:33+{00:00:00}+{00:00:00}
Video: NTSC 16:9 (720x480) VBR, Auto Letterboxed
Audio:
English (Dolby AC3, 6 ch)
VTS_11 :
Play Length: 00:08:14+{00:01:26}+{00:00:48}+{00:00:46}+{00:03:56}+{00:01:44}
Video: NTSC 16:9 (720x480) VBR, Auto Letterboxed
Audio:
English (Dolby AC3, 2 ch)
Subtitles:
English
Russian
VTS_12 :
Play Length: 00:13:33+00:02:10+00:02:08+00:01:39+00:01:29+00:01:58
Video: NTSC 16:9 (720x480) VBR, Auto Letterboxed
Audio:
English (Dolby AC3, 2 ch)
Subtitles:
English
Espanol
Francais
VTS_13 :
Play Length: 00:00:01+{00:00:00}+{00:00:00}+00:03:08+{00:00:00}+{00:00:00}+00:02:16+{00:00:00}+{00:00:00}
Video: NTSC 16:9 (720x480) VBR, Auto Letterboxed
Audio:
English (Dolby AC3, 2 ch)
* Menus Information *
VIDEO_TS Menu
Video:
NTSC 16:9 (720x480) VBR
Auto Pan&Scan
English Language Unit :
Title Menu
VTS_01 Menu
Video:
NTSC 16:9 (720x480) VBR
Auto Pan&Scan
Audio:
Not specified (Dolby AC3, 6 ch)
English Language Unit :
Root Menu
Subpicture Menu
Audio Menu
Angle menu
Chapter (PTT) Menu
VTS_02 Menu
Video:
NTSC 4:3 (720x480) VBR
Auto Pan&Scan, Auto Letterboxed
English Language Unit :
Root Menu
VTS_03 Menu
Video:
NTSC 4:3 (720x480) VBR
Auto Pan&Scan, Auto Letterboxed
English Language Unit :
Root Menu
VTS_04 Menu
Video:
NTSC 4:3 (720x480) VBR
Auto Pan&Scan, Auto Letterboxed
English Language Unit :
Root Menu
Subpicture Menu
VTS_05 Menu
Video:
NTSC 4:3 (720x480) VBR
Auto Pan&Scan, Auto Letterboxed
English Language Unit :
Root Menu
VTS_06 Menu
Video:
NTSC 4:3 (720x480) VBR
Auto Pan&Scan, Auto Letterboxed
English Language Unit :
Root Menu
VTS_07 Menu
Video:
NTSC 4:3 (720x480) VBR
Auto Pan&Scan, Auto Letterboxed
English Language Unit :
Root Menu
Subpicture Menu
VTS_08 Menu
Video:
NTSC 4:3 (720x480) VBR
Auto Pan&Scan, Auto Letterboxed
English Language Unit :
Root Menu
Subpicture Menu
VTS_09 Menu
Video:
NTSC 16:9 (720x480) VBR
Auto Pan&Scan
English Language Unit :
Root Menu
Subpicture Menu
VTS_10 Menu
Video:
NTSC 4:3 (720x480) VBR
Auto Pan&Scan, Auto Letterboxed
English Language Unit :
Root Menu
Subpicture Menu
VTS_11 Menu
Video:
NTSC 4:3 (720x480) VBR
Auto Pan&Scan, Auto Letterboxed
English Language Unit :
Root Menu
Subpicture Menu
VTS_12 Menu
Video:
NTSC 4:3 (720x480) VBR
Auto Pan&Scan, Auto Letterboxed
English Language Unit :
Root Menu
Subpicture Menu
VTS_13 Menu
Video:
NTSC 4:3 (720x480) VBR
Auto Pan&Scan, Auto Letterboxed
English Language Unit :
Root Menu
Subpicture Menu

MediaInfo:

Видео
Идентификатор : 224 (0xE0)
Формат : MPEG Video
Версия формата : Version 2
Профиль формата : Main@Main
Настройки формата : CustomMatrix / BVOP
Параметр BVOP формата : Да
Параметр матрицы формата : Выборочная
Параметр GOP формата : Variable
Продолжительность : 19 м. 26 с.
Вид битрейта : Переменный
Битрейт : 5938 Кбит/сек
Максимальный битрейт : 7100 Кбит/сек
Ширина : 720 пикселей
Высота : 480 пикселей
Соотношение сторон : 16:9
Частота кадров : 23,976 (24000/1001) кадра/сек
Цветовое пространство : YUV
Субдискретизация насыщенности : 4:2:0
Битовая глубина : 8 бит
Тип развёртки : Прогрессивная
Порядок развёртки : 2:3 Pulldown
Метод сжатия : С потерями
Бит/(Пиксели*Кадры) : 0.717
Временной код первого кадра : 00:01:40;02
Оригинал временного кода : Group of pictures header
Размер потока : 826 Мбайт (81%)
Аудио #1
Идентификатор : 189 (0xBD)-128 (0x80)
Формат : AC-3
Формат/Информация : Audio Coding 3
Параметр Endianness формата : Big
Режим смешивания : DVD-Video
Продолжительность : 19 м. 26 с.
Вид битрейта : Постоянный
Битрейт : 448 Кбит/сек
Каналы : 6 каналов
Расположение каналов : Front: L C R, Side: L R, LFE
Частота : 48,0 КГц
Частота кадров : 31,250 кадров/сек (1536 SPF)
Битовая глубина : 16 бит
Метод сжатия : С потерями
Размер потока : 62,3 Мбайт (6%)
ServiceKind : Complete Main
Аудио #2
Идентификатор : 189 (0xBD)-129 (0x81)
Формат : AC-3
Формат/Информация : Audio Coding 3
Параметр Endianness формата : Big
Режим смешивания : DVD-Video
Продолжительность : 19 м. 26 с.
Вид битрейта : Постоянный
Битрейт : 384 Кбит/сек
Каналы : 6 каналов
Расположение каналов : Front: L C R, Side: L R, LFE
Частота : 48,0 КГц
Частота кадров : 31,250 кадров/сек (1536 SPF)
Битовая глубина : 16 бит
Метод сжатия : С потерями
Размер потока : 53,4 Мбайт (5%)
ServiceKind : Complete Main
Аудио #3
Идентификатор : 189 (0xBD)-130 (0x82)
Формат : AC-3
Формат/Информация : Audio Coding 3
Параметр Endianness формата : Big
Режим смешивания : DVD-Video
Продолжительность : 19 м. 26 с.
Вид битрейта : Постоянный
Битрейт : 448 Кбит/сек
Каналы : 6 каналов
Расположение каналов : Front: L C R, Side: L R, LFE
Частота : 48,0 КГц
Частота кадров : 31,250 кадров/сек (1536 SPF)
Битовая глубина : 16 бит
Метод сжатия : С потерями
Размер потока : 62,3 Мбайт (6%)
ServiceKind : Complete Main
Текст #1
Идентификатор : 224 (0xE0)-CC3
Формат : EIA-608
Режим смешивания, доп. информация : Muxed in Video #1
Продолжительность : 19 м. 26 с.
Вид битрейта : Постоянный
Размер потока : 0,00 байт (0%)
CaptionServiceName : CC3
Текст #2
Идентификатор : 189 (0xBD)-32 (0x20)
Формат : RLE
Формат/Информация : Run-length encoding
Режим смешивания : DVD-Video
Текст #3
Идентификатор : 189 (0xBD)-33 (0x21)
Формат : RLE
Формат/Информация : Run-length encoding
Режим смешивания : DVD-Video
Меню

Доп. информация:

Исходником послужил лицензионный DVD9 из-за рубежа. Испанскую звуковую дорожку заменил на русскую вместе с субтитрами. Французскую дорогу удалил.
Предупреждающие надписи скрыл.
Доп. материалы переведены русскими субтитрами.
Использовались программы: MKVExtractGUI2, PgcDemux, DVD ReMake Pro, Adobe PhotoShop, MuxMan, MaestroSBT, SubtitleEdit, DVDSubEdit.

Скриншоты меню:

Скриншоты :

 GOLD TORRENT! DOWNLOAD TRAFFIC DOES NOT CONSIDER! 
Torrent: Registered [ 2017-11-08 00:25 ]   · E28A602101ED2C7A8EF19181CD72BF6BF2587D54

Download .torrent

Download

37 KB

Status: checked
Completed: 0 times
Size: 6.83 GB
Поделиться:
terms.php
[Profile] [PM]
Display posts:    
Reply to topic

Current time is: 24-Sep 01:41

All times are UTC + 3



You cannot post new topics in this forum
You cannot reply to topics in this forum
You cannot edit your posts in this forum
You cannot delete your posts in this forum
You cannot vote in polls in this forum
You cannot attach files in this forum
You can download files in this forum