Робот по имени Чаппи / Chappie (Нил Бломкамп / Neill Blomkamp) [2015, США, Мексика, ЮАР, Фантастика, боевик, триллер, BDRip-AVC] Dub + Sub Rus, Eng + Original Eng

Reply to topic
DL-List and Torrent activity
Size:  4.13 GB   |    Registered:  3 months 25 days   |    Completed:  0 times

Seeder not seen: Never

 
   
 
 
Author Message

admin ®

Gender: Male

Longevity: 3 years

Posts: 10018

Post 05-Oct-2017 04:31

[Quote]

Робот по имени ЧаппиChappie«I am discovery. I am wonder. I am chappie»

Страна: США, Мексика, ЮАР
Жанр: Фантастика, боевик, триллер
Год выпуска: 2015
Продолжительность: 02:00:19
Перевод: Профессиональный (дублированный) Blu-ray EUR
Субтитры: русские,английские
Оригинальная аудиодорожка: английский
Режиссер: Нил Бломкамп / Neill Blomkamp
В ролях: Шарлто Копли, Дев Патель, Ниндзя, Йоланди Фиссер, Хосе Пабло Кантильо, Хью Джекман, Сигурни Уивер, Брэндон Оре, Джонни Селема, Андерсон Купер
Описание: Чаппи - вундеркинд. Как и любой другой ребенок, он попадает под влияние своего окружения, и только его сердце и душа помогут ему найти свой путь. Но есть одна вещь, которая делает Чаппи непохожим на всех остальных: он – первый робот, способный чувствовать и думать.
Доп. информация:
Релиз группы:
Сохранены оригинальные главы как на Bluray
Качество видео: BDRip-AVC | Робот по имени Чаппи / Chappie(2015) Blu-ray EUR| HD club
Формат видео: MKV
Видео: 1152x480 (2:40:1), 23,976 fps, 3918 Кbps, 0.296 bit/pixe
Аудио: 48 kHz, AC3 Dolby Digital, 3/2 (L,C,R,l,r) + LFE ch, ~448.00 kbps avg DUB
Аудио 2: 48 kHz, AC3 Dolby Digital, 3/2 (L,C,R,l,r) + LFE ch, ~448.00 kbps avg ENG
Формат субтитров: softsub (SRT)
Доп. информация о субтитрах: отключаемые

MediaInfo

General
Unique ID : 178471010533837460342323494564951252148 (0x8644442ECE91866FB43903905AC85CB4)
Complete name : D:\Мои рипы\Робот по имени Чаппи\Chappie by_IVAN@190282.mkv
Format : Matroska
Format version : Version 4 / Version 2
File size : 4.13 GiB
Duration : 2h 0mn
Overall bit rate : 4 912 Kbps
Encoded date : UTC 2016-03-03 03:59:19
Writing application : mkvmerge v8.8.0 ('Wind at my back') 64bit
Writing library : libebml v1.3.3 + libmatroska v1.4.4
Attachements : cover.jpg
DURATION : 01:52:14.812000000
NUMBER_OF_FRAMES : 1610
NUMBER_OF_BYTES : 51740
_STATISTICS_WRITING_APP : mkvmerge v8.8.0 ('Wind at my back') 64bit
_STATISTICS_WRITING_DATE_UT : 2016-03-03 03:59:19
_STATISTICS_TAGS : BPS DURATION NUMBER_OF_FRAMES NUMBER_OF_BYTES
Video
ID : 1
Format : AVC
Format/Info : Advanced Video Codec
Format profile : High@L4.1
Format settings, CABAC : Yes
Format settings, ReFrames : 12 frames
Codec ID : V_MPEG4/ISO/AVC
Duration : 2h 0mn
Bit rate : 3 918 Kbps
Width : 1 152 pixels
Height : 480 pixels
Display aspect ratio : 2.40:1
Frame rate mode : Constant
Frame rate : 23.976 fps
Color space : YUV
Chroma subsampling : 4:2:0
Bit depth : 8 bits
Scan type : Progressive
Bits/(Pixel*Frame) : 0.296
Stream size : 3.29 GiB (80%)
Title : Chappie by_IVAN@190282
Writing library : x264 core 146 r2538kMod 121396c
Encoding settings : cabac=1 / ref=12 / deblock=1:-3:-3 / analyse=0x3:0x133 / me=umh / subme=11 / psy=1 / fade_compensate=0.00 / psy_rd=1.00:0.05 / mixed_ref=1 / me_range=48 / chroma_me=1 / trellis=2 / 8x8dct=1 / cqm=0 / deadzone=21,11 / fast_pskip=0 / chroma_qp_offset=-3 / threads=6 / lookahead_threads=6 / sliced_threads=0 / nr=0 / decimate=1 / interlaced=0 / bluray_compat=0 / constrained_intra=0 / fgo=0 / bframes=16 / b_pyramid=2 / b_adapt=2 / b_bias=0 / direct=3 / weightb=1 / open_gop=0 / weightp=2 / keyint=240 / keyint_min=23 / scenecut=40 / intra_refresh=0 / rc_lookahead=60 / rc=crf / mbtree=0 / crf=17.7000 / qcomp=0.60 / qpmin=0 / qpmax=69 / qpstep=4 / vbv_maxrate=50000 / vbv_bufsize=62500 / crf_max=0.0 / nal_hrd=none / filler=0 / ip_ratio=1.40 / pb_ratio=1.30 / aq=2:1.80
Language : English
Default : Yes
Forced : No
Color range : Limited
Color primaries : BT.709
Transfer characteristics : BT.709
Matrix coefficients : BT.709
DURATION : 02:00:19.129000000
NUMBER_OF_FRAMES : 173086
NUMBER_OF_BYTES : 3621985876
_STATISTICS_WRITING_APP : mkvmerge v8.8.0 ('Wind at my back') 64bit
_STATISTICS_WRITING_DATE_UT : 2016-03-03 03:59:19
_STATISTICS_TAGS : BPS DURATION NUMBER_OF_FRAMES NUMBER_OF_BYTES
Audio #1
ID : 2
Format : AC-3
Format/Info : Audio Coding 3
Mode extension : CM (complete main)
Format settings, Endianness : Big
Codec ID : A_AC3
Duration : 2h 0mn
Bit rate mode : Constant
Bit rate : 448 Kbps
Channel(s) : 6 channels
Channel positions : Front: L C R, Side: L R, LFE
Sampling rate : 48.0 KHz
Compression mode : Lossy
Stream size : 386 MiB (9%)
Title : Dub
Language : Russian
Default : Yes
Forced : No
Audio #2
ID : 3
Format : AC-3
Format/Info : Audio Coding 3
Mode extension : CM (complete main)
Format settings, Endianness : Big
Codec ID : A_AC3
Duration : 2h 0mn
Bit rate mode : Constant
Bit rate : 448 Kbps
Channel(s) : 6 channels
Channel positions : Front: L C R, Side: L R, LFE
Sampling rate : 48.0 KHz
Compression mode : Lossy
Stream size : 386 MiB (9%)
Title : Eng
Language : English
Default : No
Forced : No
Text #1
ID : 4
Format : UTF-8
Codec ID : S_TEXT/UTF8
Codec ID/Info : UTF-8 Plain Text
Title : Rus
Language : Russian
Default : No
Forced : No
Text #2
ID : 5
Format : UTF-8
Codec ID : S_TEXT/UTF8
Codec ID/Info : UTF-8 Plain Text
Title : Eng
Language : English
Default : No
Forced : No
Menu
00:00:00.000 : en:Chapter 01
00:03:37.008 : en:Chapter 02
00:09:55.260 : en:Chapter 03
00:13:50.495 : en:Chapter 04
00:21:53.644 : en:Chapter 05
00:31:17.541 : en:Chapter 06
00:37:19.319 : en:Chapter 07
00:46:58.730 : en:Chapter 08
00:54:36.690 : en:Chapter 09
01:06:12.927 : en:Chapter 10
01:09:57.649 : en:Chapter 11
01:16:48.394 : en:Chapter 12
01:24:59.550 : en:Chapter 13
01:31:35.197 : en:Chapter 14
01:42:36.942 : en:Chapter 15
01:50:03.595 : en:Chapter 16

x264 log

VIDEO ENCODING
x264 [info]: frame I:1410 Avg QP:15.68 size: 96201 PSNR Mean Y:45.67 U:49.23 V:49.62 Avg:46.41 Global:45.25
x264 [info]: frame P:45444 Avg QP:16.88 size: 38399 PSNR Mean Y:44.77 U:49.20 V:49.73 Avg:45.56 Global:44.44
x264 [info]: frame B:126232 Avg QP:18.31 size: 13795 PSNR Mean Y:44.00 U:48.70 V:49.26 Avg:44.80 Global:43.71
x264 [info]: consecutive B-frames: 4.2% 5.6% 12.0% 33.0% 16.7% 19.3% 4.8% 2.7% 0.6% 0.4% 0.1% 0.3% 0.0% 0.0% 0.0% 0.0% 0.0%
x264 [total]: encoded 173086 frames, 6.55 fps, 4013.77 kb/s, duration 7:20:08.33

Скриншот c названием фильма

Скриншоты

Сравнения

Source by_IVAN@190282
Убедительная просьба пожалуйста кто скачал не бросайте раздачу!!!
 GOLD TORRENT! DOWNLOAD TRAFFIC DOES NOT CONSIDER! 
Torrent: Registered [ 2020-06-06 07:43 ]   · 6C0DC6A2925B2A1EAAAFF76B27D2F45C2F3C0C42

Download .torrent

Download

11 KB

Status: checked
Completed: 0 times
Size: 4.13 GB
Поделиться:
terms.php
[Profile] [PM]
Display posts:    
Reply to topic

Current time is: 01-Oct 19:33

All times are UTC + 3



You cannot post new topics in this forum
You cannot reply to topics in this forum
You cannot edit your posts in this forum
You cannot delete your posts in this forum
You cannot vote in polls in this forum
You cannot attach files in this forum
You can download files in this forum